Welcome Guest ( Log In | Register )

 
Reply to this topicStart new topic
> Genital Deformities - Shag Nasty! Oi! (1989), Thrash Metal/Hardcore (D5)
post May 17 2022, 08:10:00
Post #1

Join my religion, or die
**************
Group: Металариец
Posts: 11,171
Releases: 1826
From: Питера
On Forums: 12 years 10 months
Thanks: 24157 time(s)
Russian Federation


(IMG:https://metalarea.org/images/audiocovers/2022_May/acov_tid364866_thumb.jpg)

*Artist: Genital Deformities
*Album: Shag Nasty! Oi!
*Year: 1989
*Genre: Thrash Metal/Hardcore
*Country: United Kingdom (IMG:https://metalarea.org/forum/style_images/flags/United%20Kingdom.png)
*Format: mp3@CBR320kbps
*Size: 74MB

Tracklist:
01. Babels Children (Intro) 02:55
02. Grotesque Movements 01:39
03. Hell Event 04:00
04. Dik Hill 00:43
05. Babies in Bottles 01:00
06. Crouterposs (Acoustic) 00:53
07. Dark Sky 04:14
08. Embark on Evil 01:27
09. Warcore 01:39
10. The Skins of Our Fathers 02:38
11. The Forbidden 01:15
12. Head Fucker 01:55
13. Son of Celluloid 03:57
14. Compost Corner 01:36
15. Back to Reality 02:22
******************************
Total playing time: 32:13

Preview 1

Extended info
Дикая помесь Celtic Frost и Hellhammer, немного приправленная хардкором



Technical info
(IMG:https://metalarea.org/images/spectrogram/2022_May/478f1990a824333a03b776a82406340a.png)
Input File: 02 Grotesque movements.mp3
Channels : 2
Sample Rate : 44100
Precision : 16-bit
Duration : 00:01:34.78 = 4179798 samples = 7108.5 CDDA sectors
File Size : 3.95M
Bit Rate : 333k
Sample Encoding: MPEG audio (layer I, II or III)
Comments :
Title=Grotesque movements
Artist=Genital Deformities
Album=1989 ShagNasty! Oi!
Tracknumber=02/13
Year=1989
Genre=Thrash Metal/Hardcore



Register


Go to the top of the page
  Insert nick Quick quote
+Quote Post

Reply to this topicStart new topic
1 User(s) are reading this topic (1 Guests and 0 Anonymous Users)
0 Members:

 



- Lo-Fi Version Support form
Copyrights and abuse reports form
Time is now: 11th August 2022 - 07:31:09