Welcome Guest ( Log In | Register )

> Bog Body - Cryonic Crevasse Cult (2022), Blackened Death Metal/Sludge
post May 18 2022, 05:22:13
Post #1

Правь статус, ####!111
**************
Group: Металариец
Posts: 3,223
Releases: 1734
On Forums: 11 years 8 months
Thanks: 33714 time(s)
Russian Federation


(IMG:https://metalarea.org/images/audiocovers/2022_May/acov_tid364887_thumb.jpg)

*Artist: Bog Body
*Album: Cryonic Crevasse Cult
*Year: 2022
*Genre: Blackened Death Metal/Sludge
*Country: United States (IMG:https://metalarea.org/forum/style_images/flags/United%20States.png)
*Format: mp3@CBR320kbps
*Size: 77MB

Tracklist:
1.Paralytic Pit Of Swallowed Graves 04:01
2.Dregs Soar To The Skies 02:54
3.The Temple Of The Inevitable Flame 04:49
4.Ice Stained Kurgan 05:35
5.Cryonic Crevasse Cult 05:14
6.Mystery Of The Yaghan Bones 04:43
7.Frigid Shivs Slit Their Throats 02;12
8.The Graveyard Of Dead Cratons 04;34
******************************
Total playing time: 27:16



Technical info
(IMG:https://metalarea.org/images/spectrogram/2022_May/67432ce6479f73049dbbc24c0ffac57c.png)
Input File: 02. Dregs Soar to the Skies.mp3
Channels : 2
Sample Rate : 44100
Precision : 16-bit
Duration : 00:02:54.43 = 7692451 samples = 13082.4 CDDA sectors
File Size : 6.98M
Bit Rate : 320k
Sample Encoding: MPEG audio (layer I, II or III)
Comments :
Title=Dregs Soar to the Skies
Artist=Bog Body
Album=Cryonic Crevasse Cult
Tracknumber=02
Year=2022
Genre=Death/Black/Sludge



Register


Go to the top of the page
  Insert nick Quick quote
+Quote Post
 
Start new topic
Replies (1 - 9)
post May 18 2022, 10:39:22
Post #2

Кожаный ублюдок
**************
Group: Металариец
Posts: 3,469
Releases: 6
From: Алчевск (early) Некросибирск (now)
On Forums: 13 years 3 months
Thanks: 2417 time(s)
Russian Federation


Sòudge - это что такое и с чем его едят? (IMG:style_emoticons/default/fear.gif)


Thanks:
(1) kefka,
Go to the top of the page
  Insert nick Quick quote
+Quote Post
post May 18 2022, 11:24:42
Post #3

ЗаDOOMчивый
***********
Group: Металариец
Posts: 1,830
Releases: 27
From: Cradlовская обл., г. Нижний Gorgoroth, р-н Doom-о-Deathово
On Forums: 13 years 8 months
Thanks: 1298 time(s)
Russian Federation


ЦИТАТА(SatanicPanzer @ May 18 2022, 11:39:22) *
Sòudge - это что такое и с чем его едят? (IMG:style_emoticons/default/fear.gif)

Гибрид Southern и Sludge? (IMG:style_emoticons/default/1488.gif)


Thanks:
(1) kefka,
Go to the top of the page
  Insert nick Quick quote
+Quote Post
post May 18 2022, 11:27:22
Post #4

кручу наждак
**************
Group: Металариец
Posts: 5,615
Releases: 107
From: Самара
On Forums: 12 years 3 months
Thanks: 4465 time(s)
Russian Federation


Новый жанр? Надо заценить.


Thanks:
(1) kefka,
Go to the top of the page
  Insert nick Quick quote
+Quote Post
post May 18 2022, 13:01:08
Post #5
BAN
Banned till
Aug 17 2022, 15:38:53



это худшая музыка моих самых темных дней.
Go to the top of the page
  Insert nick Quick quote
+Quote Post
post May 19 2022, 14:31:41
Post #6

Group: Подсевший
Posts: 15
Releases: 0
On Forums: 5 years 9 months
Thanks: 2 time(s)
Turkey


is this upconvert? it sounded a lot weaker than their sound in the demo. I wasn't sure if it was something they did consciously or because it was upconverted.

@kefka


Thanks:
(1) Occultas,
Go to the top of the page
  Insert nick Quick quote
+Quote Post
post May 20 2022, 09:49:59
Post #7

Правь статус, ####!111
**************
Group: Металариец
Posts: 3,223
Releases: 1734
On Forums: 11 years 8 months
Thanks: 33714 time(s)
Russian Federation


FLAC (Tracks) 230MB
Register


Thanks:
Go to the top of the page
  Insert nick Quick quote
+Quote Post
post May 20 2022, 10:38:10
Post #8

обратное изображение в ядовитом глазу
**************
Group: Металариец
Posts: 7,360
Releases: 11
On Forums: 12 years 9 months
Thanks: 3533 time(s)
Unknown


стиль привлекателен. какие мнения у прослушавших?
Go to the top of the page
  Insert nick Quick quote
+Quote Post
post May 20 2022, 10:46:05
Post #9

королева бала
**********
Group: Металариец
Posts: 1,047
Releases: 0
On Forums: 15 years 3 months
Thanks: 705 time(s)
Russian Federation


Атеисты такие: NAUKA BODY

А музыка неплохая, сырая и грязная. Разок можно заценить, как минимум.


Thanks:
(1) Chasm,
Go to the top of the page
  Insert nick Quick quote
+Quote Post
post May 20 2022, 10:51:40
Post #10

кручу наждак
**************
Group: Металариец
Posts: 5,615
Releases: 107
From: Самара
On Forums: 12 years 3 months
Thanks: 4465 time(s)
Russian Federation


ЦИТАТА(Chasm @ May 20 2022, 10:38:10) *
стиль привлекателен. какие мнения у прослушавших?

По двум доступным трекам с бандкампа - грязно, мутно, глухо, подвально. Интереса не вызвало.


Thanks:
(1) Chasm,
Go to the top of the page
  Insert nick Quick quote
+Quote Post

Reply to this topicStart new topic
2 User(s) are reading this topic (2 Guests and 0 Anonymous Users)
0 Members:

 



- Lo-Fi Version Support form
Copyrights and abuse reports form
Time is now: 15th August 2022 - 02:07:21