Welcome Guest ( Log In | Register )

> Releases Upload / Добавление релизов

Добавить релиз тут / Click here to add release
Рекомендованные обменники / Recommended file shares

 
Reply to this topicStart new topic
> Luna Pythonissam - Sáasil [ep] (2022), Post-Black Metal
post May 18 2022, 09:07:22
Post #1

Правь статус, ####!111
**************
Group: Металариец
Posts: 2,974
Releases: 1506
On Forums: 11 years 7 months
Thanks: 29666 time(s)
Russian Federation


(IMG:https://metalarea.org/images/audiocovers/2022_May/acov_tid364894_thumb.jpg)

*Artist: Luna Pythonissam
*Album: Sáasil [ep]
*Year: 2022
*Genre: Post-Black Metal
*Country: International (IMG:https://metalarea.org/forum/style_images/flags/International.png)
*Format: mp3@CBR320kbps
*Size: 75MB

Tracklist:
1.Kin 01:20
2.Lu'um 04:21
3.K'áak'o' 05:03
4.Itza 05:11
5.Sayab 04:53
6.Sacnikté 04:24
7.Ajal 05:30
8.K'oopté 01:56
******************************
Total playing time: 32:38



Extended info
Australia / Mexico
Alex Bjørn Guitars, Drums (2022-present)
See also: Before I Die, Chagrin, Cry of Condemned, Destined to Suffer, Hellhole, Joy, Lifeless, Ruined Mind, Thrown Away, Wandering Martyr, Погань, Скорбь, ex-Inhale, Пустота
Nox Victoria Vocals, Keyboards, Bass, Drums (2022-present)
See also: AIAA 7, Cantodea Dianthus, Micarlla II, Oblivion Castle, Oculi Melancholiarum, ex-Lacrimal, Cora's Heart, Memorias de otra vida, The Last Days
All tracks of the album are written in Mayan.


Technical info
(IMG:https://metalarea.org/images/spectrogram/2022_May/53b0d880dbf325ada2d3576c80b6102f.png)
Input File: 02 Lu'um.mp3
Channels : 2
Sample Rate : 44100
Precision : 16-bit
Duration : 00:04:21.19 = 11518435 samples = 19589.2 CDDA sectors
File Size : 10.5M
Bit Rate : 323k
Sample Encoding: MPEG audio (layer I, II or III)
Comments :
Title=Lu'um
Artist=Luna Pythonissam
Album=Sáasil
Tracknumber=02
Year=2022
Genre=Post-Black Metal



Register

Register


Go to the top of the page
  Insert nick Quick quote
+Quote Post

Reply to this topicStart new topic
1 User(s) are reading this topic (1 Guests and 0 Anonymous Users)
0 Members:

 



- Lo-Fi Version Support form
Copyrights and abuse reports form
Time is now: 5th July 2022 - 06:38:25