Welcome Guest ( Log In | Register )

> Thy Kingdom Will Burn - The Void And The Vengeance (2022), Melodic Death Metal
post May 19 2022, 16:38:55
Post #1

Правь статус, ####!111
**************
Group: Металариец
Posts: 30,923
Releases: 22794
From: Г.Харьков
On Forums: 10 years 6 months
Thanks: 477015 time(s)
Unknown


(IMG:https://metalarea.org/images/audiocovers/2022_May/acov_tid364969_thumb.jpg)

*Artist: Thy Kingdom Will Burn
*Album: The Void And The Vengeance
*Year: 2022
*Genre: Melodic Death Metal
*Country: Finland (IMG:https://metalarea.org/forum/style_images/flags/Finland.png)
*Format: mp3@CBR320kbps
*Size: 105MB

Tracklist:
1. Between Two Worlds 04:29
2. Disbelief 04:31
3. Veil of Wicked Sky 04:54
4. Fortress of Solitude 05:29
5. Nothing Remains 04:37
6. Barren Land 05:00
7. Siren of Doom 05:34
8. Serpents 04:39
9. Through the Broken Lens 05:44
******************************
Total playing time: 44:57




Extended info
Janne Ruuskanen Bass
Lauri Virén Drums
Sami Kujala Guitars, Vocals
Esa Virén Lead guitar


Technical info
(IMG:https://metalarea.org/images/spectrogram/2022_May/5dd221f77b58a6420a4fadcb74001967.png)
Input File: 07 - Siren of Doom.mp3
Channels : 2
Sample Rate : 44100
Precision : 16-bit
Duration : 00:05:34.00 = 14729400 samples = 25050 CDDA sectors
File Size : 13.5M
Bit Rate : 324k
Sample Encoding: MPEG audio (layer I, II or III)
Comments :
Title=Siren of Doom
Artist=Thy Kingdom Will Burn
Album=The Void and the Vengeance
Tracknumber=7
Year=2022-05-20
Genre=Melodic Death Metal
Discnumber=1



Register


Go to the top of the page
  Insert nick Quick quote
+Quote Post
 
Start new topic
Replies (1 - 5)
post May 19 2022, 18:48:56
Post #2

Тридцать три года на борту "тяжёлого" крейсера
**************
Group: Металариец
Posts: 2,965
Releases: 0
From: Питер
On Forums: 15 years 5 months
Thanks: 941 time(s)
Russian Federation


Толковый mdm, в духе предыдущего альбома
все составляющие на месте, приятная работа
Go to the top of the page
  Insert nick Quick quote
+Quote Post
post May 21 2022, 15:23:27
Post #3

Old School Metal
**************
Group: Металариец
Posts: 4,638
Releases: 0
From: г. Минск
On Forums: 13 years 8 months
Thanks: 12610 time(s)
Belarus


Lossless: FLAC (tracks)
Register


Thanks:
(1) wreak,
Go to the top of the page
  Insert nick Quick quote
+Quote Post
post May 23 2022, 20:48:18
Post #4

Шесть Литров
******
Group: Металариец
Posts: 664
Releases: 0
From: Москва
On Forums: 16 years 1 month
Thanks: 145 time(s)
Russian Federation


Отличный материал, молодцы финны.
Go to the top of the page
  Insert nick Quick quote
+Quote Post
post Sep 5 2022, 12:20:12
Post #5

Ъ
**************
Group: Металариец
Posts: 11,110
Releases: 9
On Forums: 13 years 10 months
Thanks: 2237 time(s)
Sweden


Начиная с 5 трека подепрессивней альбом и прям неплохо зашло, вторую половину можно и несколько раз прогнать, но начало заезженный вяло исполненный третьесорт.


Thanks:
(1) Ingvar,
Go to the top of the page
  Insert nick Quick quote
+Quote Post
post Sep 13 2022, 15:03:11
Post #6

Шесть Литров
******
Group: Металариец
Posts: 522
Releases: 0
From: Город Герой Москва!
On Forums: 16 years 3 months
Thanks: 38 time(s)
Russian Federation


Хороший, а главное качественный MDM, зашел на ура!
Go to the top of the page
  Insert nick Quick quote
+Quote Post

Reply to this topicStart new topic
2 User(s) are reading this topic (2 Guests and 0 Anonymous Users)
0 Members:

 



- Lo-Fi Version Support form
Copyrights and abuse reports form
Time is now: 3rd December 2022 - 17:13:40