Welcome Guest ( Log In | Register )

> Sonivinos - Sonicated Intravaginal Insemination In Numbers (2022), Technical Brutal Death Metal
post May 19 2022, 17:09:10
Post #1

Правь статус, ####!111
**************
Group: Металариец
Posts: 30,921
Releases: 22793
From: Г.Харьков
On Forums: 10 years 6 months
Thanks: 476889 time(s)
Unknown


(IMG:https://metalarea.org/images/audiocovers/2022_May/acov_tid364970_thumb.jpg)

*Artist: Sonivinos
*Album: Sonicated Intravaginal Insemination In Numbers
*Year: 2022
*Genre: Technical Brutal Death Metal
*Country: International (IMG:https://metalarea.org/forum/style_images/flags/International.png)
*Format: mp3@CBR320kbps
*Size: 108MB

Tracklist:
01. Frequential Organoid Abduction
02. Incomprehensibly Evolved
03. To Redefine Quarantine
04. Skin Splitting
05. A World Awake
06. Ingesting Ashes
07. Equally Eradicated
08. Obscene Yet Serene
09. Suspended in Dormancy
******************************
Total playing time: 46:36

Preview 1


Extended info
United States / France / Belgium
Jeff Hughell Bass
See also: Jeff Hughell, Six Feet Under, Skin the Lamb, WretchedPain, ex-Osmium, ex-Reciprocal, Bassists Alliance Project, ex-Cyanic, ex-Rings of Saturn, ex-Vile (live), ex-Brain Drill, ex-Mucus Membrane
Marco Pitruzzella Drums (2018-present)
See also: A Circle of Crows, A Pretext to Human Suffering, Abuse, Apterous, Bleak Flesh, Firelink, Habitual Depravity, Horde Casket, Hunhau Mitnal, Jeff Hughell, Mazikeen, Myiacyst, Neoplasia, Neurogenic, Omnivore Inception, Six Feet Under, Sleep Terror, Sobek, Solus ex Inferis, Supreme Banishment, The Odium Aftermath, Truth Devoid, Vile Carrion, Waking the Cadaver, ex-Anomalous, ex-Monumental Torment, Monolithic Terror, Orders of Infinity, ex-In Asymmetry, ex-The Faceless, ex-Vile (live), ex-Vital Remains (live), ex-Vörnagar, ex-Brain Drill, ex-Anthem 85, ex-Apocrypha, ex-Atrocious Hysteria, ex-Dark Heritage, ex-Lord Marco, ex-Numa, ex-Ritual Hatred
Stef Mikolajczyk Guitars, Vocals (backing) (2018-present)
See also: Lurking, ex-Shattered Skull, ex-Southwicked, ex-Henker
Ryan Batten Vocals (lead), Guitars, Lyrics (2018-present)
See also: ex-Henker


Technical info
(IMG:https://metalarea.org/images/spectrogram/2022_May/0c4e2b2825c0fc5b5ba316d802c4cfbd.png)
Input File: 07. Equally Eradicated.mp3
Channels : 2
Sample Rate : 44100
Precision : 16-bit
Duration : 00:04:54.00 = 12965400 samples = 22050 CDDA sectors
File Size : 12.0M
Bit Rate : 327k
Sample Encoding: MPEG audio (layer I, II or III)
Comments :
Title=Equally Eradicated
Artist=Sonivinos
Album=Sonicated Intravaginal Insemination in Numbers
Tracknumber=7
Year=2022
Genre=Technical Death
Discnumber=1



Register


Go to the top of the page
  Insert nick Quick quote
+Quote Post
 
Start new topic
Replies (1 - 3)
post May 21 2022, 09:32:11
Post #2

Мегаманьяк
***********
Group: Металариец
Posts: 1,947
Releases: 1
From: APATIN, SERBIA, АПАТИН, СЕРБИЯ
On Forums: 15 years 1 month
Thanks: 5735 time(s)



Flac

Register


Go to the top of the page
  Insert nick Quick quote
+Quote Post
post Jun 1 2022, 16:17:25
Post #3

королева бала
**********
Group: Металариец
Posts: 1,171
Releases: 0
On Forums: 15 years 7 months
Thanks: 772 time(s)
Russian Federation


Хороший альбом, напомнило Archspire. Кто такое любит, советую
Go to the top of the page
  Insert nick Quick quote
+Quote Post
post Jun 1 2022, 18:18:10
Post #4

Правь статус, ####!111
**************
Group: Металариец
Posts: 2,174
Releases: 0
On Forums: 13 years 9 months
Thanks: 893 time(s)
Antarctica


Норм.
Облога красочная.
Go to the top of the page
  Insert nick Quick quote
+Quote Post

Reply to this topicStart new topic
1 User(s) are reading this topic (1 Guests and 0 Anonymous Users)
0 Members:

 



- Lo-Fi Version Support form
Copyrights and abuse reports form
Time is now: 3rd December 2022 - 00:06:34