Welcome Guest ( Log In | Register )

 
Reply to this topicStart new topic
> Bonecrusher - Cell Of Mind [demo] (1994), Thrash/Groove Metal
post May 23 2022, 13:07:16
Post #1

Подвал
**************
Group: Металариец
Posts: 20,241
Releases: 11612
From: Far East (Khabarovsk)
On Forums: 15 years 2 months
Thanks: 137943 time(s)
Russian Federation


(IMG:http://metalarea.org/images/audiocovers/2022_May/acov_tid365136_thumb.jpg)

*Artist: Bonecrusher
*Album: Cell Of Mind [demo]
*Year: 1994
*Genre: Thrash/Groove Metal
*Country: United States (IMG:http://metalarea.org/forum/style_images/flags/United%20States.png)
*Format: mp3@CBR320kbps
*Size: 35MB

Tracklist:
1. Demon Seed 04:44
2. Boiled Eyeballs 05:32
3. Feels Good 04:18
******************************
Total playing time: 14:34



Extended info
Band from San Francisco, California.


Technical info
(IMG:http://metalarea.org/images/spectrogram/2022_May/1926ef266df01391362f07ff25049942.png)
Input File: 02-Boiled Eyeballs.mp3
Channels : 2
Sample Rate : 44100
Precision : 16-bit
Duration : 00:05:33.03 = 14686623 samples = 24977.2 CDDA sectors
File Size : 13.4M
Bit Rate : 323k
Sample Encoding: MPEG audio (layer I, II or III)
Comments :
Title=Boiled Eyeballs
Artist=Bonecrusher SF
Album=Cell of Mind (Demo)
Tracknumber=02
Year=1994
Genre=Thrash Metal



Register


Go to the top of the page
  Insert nick Quick quote
+Quote Post

Reply to this topicStart new topic
1 User(s) are reading this topic (1 Guests and 0 Anonymous Users)
0 Members:

 



- Lo-Fi Version Support form
Copyrights and abuse reports form
Time is now: 21st April 2024 - 11:51:40