Welcome Guest ( Log In | Register )

> Releases Upload / Добавление релизов

Добавить релиз тут / Click here to add release
Рекомендованные обменники / Recommended file shares

> Akuma - Plus Ultra [ep] (2022), Progressive/Technical Death Metal
post May 24 2022, 04:16:24
Post #1

Правь статус, ####!111
**************
Group: Металариец
Posts: 2,962
Releases: 1503
On Forums: 11 years 7 months
Thanks: 29553 time(s)
Russian Federation


(IMG:https://metalarea.org/images/audiocovers/2022_May/acov_tid365149_thumb.jpg)

*Artist: Akuma
*Album: Plus Ultra [ep]
*Year: 2022
*Genre: Progressive/Technical Death Metal
*Country: United States (IMG:https://metalarea.org/forum/style_images/flags/United%20States.png)
*Format: mp3@CBR320kbps
*Size: 58MB

Tracklist:
1.Hackerman 05:50
2.Destroyer of Worlds 05:27
3.Call of the Yeti 04:27
4.High Voltage Fist 04:50
5.Ancient Psychic Tandem War Elephant 04:46
******************************
Total playing time: 25:20



Technical info
(IMG:https://metalarea.org/images/spectrogram/2022_May/5c4098e4e4726ae441c96eb1484a7390.png)
Input File: 02 Destroyer of Worlds.mp3
Channels : 2
Sample Rate : 44100
Precision : 16-bit
Duration : 00:05:27.60 = 14446984 samples = 24569.7 CDDA sectors
File Size : 13.2M
Bit Rate : 323k
Sample Encoding: MPEG audio (layer I, II or III)
Comments :
Title=Destroyer of Worlds
Artist=Akuma
Album=Plus Ultra
Tracknumber=02
Year=2022
Genre=Progressive/Technical Death Metal



Register


Go to the top of the page
  Insert nick Quick quote
+Quote Post
 
Start new topic
Replies (1 - 1)
post May 24 2022, 14:31:56
Post #2

Четыре Литра
****
Group: Металариец
Posts: 397
Releases: 0
From: Челябинск
On Forums: 15 years 3 months
Thanks: 161 time(s)
Russian Federation


Была здесь Akuma с альбомом 2007 г. Shrouds of the Final Nothing. Это они или нет?


Thanks:
(1) WOLAND,
Go to the top of the page
  Insert nick Quick quote
+Quote Post

Reply to this topicStart new topic
1 User(s) are reading this topic (1 Guests and 0 Anonymous Users)
0 Members:

 



- Lo-Fi Version Support form
Copyrights and abuse reports form
Time is now: 3rd July 2022 - 18:31:56