Welcome Guest ( Log In | Register )

> Releases Upload / Добавление релизов

Добавить релиз тут / Click here to add release
Рекомендованные обменники / Recommended file shares

 
Reply to this topicStart new topic
> Demonical - In League With Death [ep] (2022), Death Metal (D)
post May 24 2022, 15:05:55
Post #1

local
**************
Group: Металариец
Posts: 2,734
Releases: 253
On Forums: 15 years 7 months
Thanks: 7188 time(s)
Unknown


(IMG:http://metalarea.org/images/audiocovers/2022_May/acov_tid365159_thumb.jpg)

*Artist: Demonical
*Album: In League With Death [ep]
*Year: 2022
*Genre: Death Metal
*Country: Sweden (IMG:http://metalarea.org/forum/style_images/flags/Sweden.png)
*Format: mp3@CBR320kbps
*Size: 48MB

Tracklist:
1. Fallen Mountain 04:55
2. Death Metal (Onslaught cover) 04:17
3. Revel in Misanthropia 04:42
4. The Order (live) 02:54
5. World Serpent (live) 03:48
******************************
Total playing time: 20:36

Extended info
"Fallen Mountain" taken from the "Mass Destroyer" album (2022).
"Death Metal" taken from the "Demonical - Servants Of The Unlight" album (2007).
"Revel In Misanthropia" taken from the "Demonical - Bloodspell Divine" promo (2006).
"The Order" recorded live at Circolo Colony in Brescia, Italy, on July 15th, 2014.
"World Serpent" recorded live at Circolo Colony in Brescia, Italy, on July 15th, 2014.


Technical info
(IMG:http://metalarea.org/images/spectrogram/2022_May/9a8190b9923ac867374057fbaafd156e.png)
Input File: 01 - Fallen Mountain.mp3
Channels : 2
Sample Rate : 44100
Precision : 16-bit
Duration : 00:04:54.83 = 13001827 samples = 22112 CDDA sectors
File Size : 12.0M
Bit Rate : 326k
Sample Encoding: MPEG audio (layer I, II or III)
Comments :
Title=Fallen Mountain
Artist=Demonical
Album=In League with Death
Tracknumber=1/5
Year=2022
Genre=Death Metal



Register


Go to the top of the page
  Insert nick Quick quote
+Quote Post

Reply to this topicStart new topic
1 User(s) are reading this topic (1 Guests and 0 Anonymous Users)
0 Members:

 



- Lo-Fi Version Support form
Copyrights and abuse reports form
Time is now: 1st July 2022 - 05:52:13