Welcome Guest ( Log In | Register )

 
Reply to this topicStart new topic
> Sunfall - Roots Bloody Roots [single] (2022), Groove Metal/Metalcore
post May 25 2022, 11:46:31
Post #1

MDM-Thrash Metal
**************
Group: Металариец
Posts: 11,327
Releases: 1571
From: Одесса
On Forums: 15 years 1 week
Thanks: 37035 time(s)
Ukraine


(IMG:http://metalarea.org/images/audiocovers/2022_May/acov_tid365200_thumb.jpg)

*Artist: Sunfall
*Album: Roots Bloody Roots [single]
*Year: 2022
*Genre: Groove Metal/Metalcore
*Country: International (IMG:http://metalarea.org/forum/style_images/flags/International.png)
*Format: mp3@CBR320kbps
*Size: 9MB

Tracklist:
1. Roots Bloody Roots 4:01 (Sepultura Cover)
******************************
Total playing time: 4:01

(IMG:http://metalarea.org/images/youtube.png)

Extended info
United Kingdom / Australia.


Technical info
(IMG:http://metalarea.org/images/spectrogram/2022_May/f33378f6aef60509fadde47807fdb31c.png)
Input File: Sunfall - Roots Bloody Roots.mp3
Channels : 2
Sample Rate : 44100
Precision : 16-bit
Duration : 00:04:01.36 = 10644020 samples = 18102.1 CDDA sectors
File Size : 9.65M
Bit Rate : 320k
Sample Encoding: MPEG audio (layer I, II or III)
Comments :
Title=Roots Bloody Roots (Sepultura cover)
Artist=Sunfall



Register


Go to the top of the page
  Insert nick Quick quote
+Quote Post

Reply to this topicStart new topic
1 User(s) are reading this topic (1 Guests and 0 Anonymous Users)
0 Members:

 



- Lo-Fi Version Support form
Copyrights and abuse reports form
Time is now: 17th August 2022 - 08:43:18