Welcome Guest ( Log In | Register )

> Releases Upload / Добавление релизов

Добавить релиз тут / Click here to add release
Рекомендованные обменники / Recommended file shares

 
Reply to this topicStart new topic
> Braindead - Left & Right (2020), Thrash Metal/Crossover (D21)
post May 25 2022, 15:58:21
Post #1

Правь статус, ####!111
**************
Group: Металариец
Posts: 29,672
Releases: 21826
From: Г.Харьков
On Forums: 10 years 1 month
Thanks: 452549 time(s)
Unknown


(IMG:https://metalarea.org/images/audiocovers/2022_May/acov_tid365211_thumb.jpg)

*Artist: Braindead
*Album: Left & Right
*Year: 2020
*Genre: Thrash Metal/Crossover
*Country: Czech Republic (IMG:https://metalarea.org/forum/style_images/flags/Czech%20Republic.png)
*Format: mp3@CBR320kbps
*Size: 85MB

Tracklist:
1. Intro
2. T-Alphabet
3. Snakes in Suit
4. Kill the Shepherd
5. Left & Right
6. Don't Do It
7. Electric Greeder
8. Time Bomb
9. Never Again
******************************
Total playing time: 20:42




Extended info
CD-Rip+Scans
Doktor Bass
Karlos Drums
Tadlys Guitars
See also: Ashtray, Boží muka
Kudr Vocals



Technical info
(IMG:https://metalarea.org/images/spectrogram/2022_May/78577c2eb81467743c67a683ec0af64e.png)
Input File: 09 - Never Again.mp3
Channels : 2
Sample Rate : 44100
Precision : 16-bit
Duration : 00:04:15.29 = 11258069 samples = 19146.4 CDDA sectors
File Size : 10.2M
Bit Rate : 320k
Sample Encoding: MPEG audio (layer I, II or III)
Comments :
Title=Never Again
Artist=Braindead
Album=Left & Right
Tracknumber=9
Year=2020
Genre=Thrash Metal



Register


Go to the top of the page
  Insert nick Quick quote
+Quote Post

Reply to this topicStart new topic
1 User(s) are reading this topic (1 Guests and 0 Anonymous Users)
0 Members:

 



- Lo-Fi Version Support form
Copyrights and abuse reports form
Time is now: 5th July 2022 - 08:43:43