Welcome Guest ( Log In | Register )

> Releases Upload / Добавление релизов

Добавить релиз тут / Click here to add release
Рекомендованные обменники / Recommended file shares

 
Reply to this topicStart new topic
> Hagorun - March Of The Storm [demo] (2022), Black Metal
post May 25 2022, 16:20:41
Post #1

Правь статус, ####!111
**************
Group: Металариец
Posts: 2,507
Releases: 2040
From: Praha
On Forums: 8 years 2 months
Thanks: 55673 time(s)
Czech Republic


(IMG:http://metalarea.org/images/audiocovers/2022_May/acov_tid365216_thumb.jpg)

*Artist: Hagorun
*Album: March Of The Storm [demo]
*Year: 2022
*Genre: Black Metal
*Country: Bosnia and Herzegovina (IMG:http://metalarea.org/forum/style_images/flags/Bosnia%20and%20Herzegovina.png)
*Format: mp3@CBR320kbps
*Size: 43MB

Tracklist:
01. Into The Heart Of Eternity 7:26
02. The Last Winter's Song 5:17
03. March Of The Storm 4:06
******************************
Total playing time: 16:49



Technical info
(IMG:http://metalarea.org/images/spectrogram/2022_May/7a89b5a45811eaed098469f964f866ad.png)
Input File: 02. The Last Winter\'s Song.mp3
Channels : 2
Sample Rate : 44100
Precision : 16-bit
Duration : 00:05:17.10 = 13983890 samples = 23782.1 CDDA sectors
File Size : 12.9M
Bit Rate : 325k
Sample Encoding: MPEG audio (layer I, II or III)
Comments :
Title=The Last Winter's Song
Artist=Hagorun
Album=March of the Storm
Tracknumber=02/03
Year=2022
Genre=Black metal



Register


Go to the top of the page
  Insert nick Quick quote
+Quote Post

Reply to this topicStart new topic
1 User(s) are reading this topic (1 Guests and 0 Anonymous Users)
0 Members:

 



- Lo-Fi Version Support form
Copyrights and abuse reports form
Time is now: 5th July 2022 - 07:09:48