Welcome Guest ( Log In | Register )

 
Reply to this topicStart new topic
> Prozektor - Organism (2022), Death Metal
post May 25 2022, 16:59:31
Post #1

пью тока пиво
******
Group: Металариец
Posts: 570
Releases: 185
On Forums: 17 years 1 month
Thanks: 1182 time(s)
Russian Federation


(IMG:https://metalarea.org/images/audiocovers/2022_May/acov_tid365220_thumb.jpg)

*Artist: Prozektor
*Album: Organism
*Year: 2022
*Genre: Death Metal
*Country: Russian Federation (IMG:https://metalarea.org/forum/style_images/flags/Russian%20Federation.png)
*Format: mp3@CBR320kbps
*Size: 76MB

Tracklist:
1. Intro 00:54
2. Cannibalism 04:48
3. I Go Digging 01:48
4. Splinters in the Eyes 03:56
5. Tromb 02:30
6. Crime Zone 04:55
7. Walking Corpse 04:50
8. Washing of Interiors 03:47
9. Cut of Prozektor 03:47
10. Outro 01:24
******************************
Total playing time: 32:39

Preview 1
(IMG:https://metalarea.org/images/youtube.png)

Extended info
Альбом 2008 года ярославской банды Prozektor был издан в январе 2022-го лейблом Wroth Emitter.


Technical info
(IMG:https://metalarea.org/images/spectrogram/2022_May/2b3d710dcb93a866312ef6c79bce5f98.png)
Input File: 02. Cannibalism.mp3
Channels : 2
Sample Rate : 44100
Precision : 16-bit
Duration : 00:04:48.20 = 12709532 samples = 21614.9 CDDA sectors
File Size : 11.5M
Bit Rate : 320k
Sample Encoding: MPEG audio (layer I, II or III)
Comments :
Title=Cannibalism
Artist=Prozektor
Album=Organism
Tracknumber=02
Year=2022
Genre=Death Metal



Register


Go to the top of the page
  Insert nick Quick quote
+Quote Post

Reply to this topicStart new topic
2 User(s) are reading this topic (2 Guests and 0 Anonymous Users)
0 Members:

 



- Lo-Fi Version Support form
Copyrights and abuse reports form
Time is now: 24th February 2024 - 11:27:28