Welcome Guest ( Log In | Register )

> Releases Upload / Добавление релизов

Добавить релиз тут / Click here to add release
Рекомендованные обменники / Recommended file shares

 
Reply to this topicStart new topic
> Decompositorum - Destination (2022), Black Metal/Noise Rock/Post-Industrial (D5)
post May 29 2022, 12:49:05
Post #1

Маньяк
**********
Group: Металариец
Posts: 1,025
Releases: 5
On Forums: 3 years 3 weeks
Thanks: 823 time(s)
Russian Federation


(IMG:https://metalarea.org/images/audiocovers/2022_May/acov_tid365435_thumb.jpg)

*Artist: Decompositorum
*Album: Destination
*Year: 2022
*Genre: Black Metal/Noise Rock/Post-Industrial
*Country: Russian Federation (IMG:https://metalarea.org/forum/style_images/flags/Russian%20Federation.png)
*Format: mp3@CBR320kbps
*Size: 81MB

Tracklist:
1. Root of Phobia 03:58
2. Scourged 03:47
3. Theft 04:07
4. Glitch 02:13
5. Insomniac 03:58
6. Streaming Nowhere 03:40
7. Seconds Out 03:31
8. Destination 03:40
9. Tremor 04:06
10. Tomb 02:19
******************************
Total playing time: 35:19



Technical info
(IMG:https://metalarea.org/images/spectrogram/2022_May/c913f1e1acdd3d71d0a9e8d4013f81e3.png)
Input File: 01. Root of Phobia.mp3
Channels : 2
Sample Rate : 44100
Precision : 16-bit
Duration : 00:03:58.28 = 10507972 samples = 17870.7 CDDA sectors
File Size : 9.53M
Bit Rate : 320k
Sample Encoding: MPEG audio (layer I, II or III)
Comments :
Title=Root of Phobia
Artist=Decompositorum
Album=Destination
Tracknumber=1
Year=2022
Genre=Experimental Black Metal



Register


Go to the top of the page
  Insert nick Quick quote
+Quote Post

Reply to this topicStart new topic
1 User(s) are reading this topic (1 Guests and 0 Anonymous Users)
0 Members:

 



- Lo-Fi Version Support form
Copyrights and abuse reports form
Time is now: 5th July 2022 - 06:51:18