Welcome Guest ( Log In | Register )

> Livonia - Livonia (2022), Melodic Death Metal
post May 29 2022, 15:55:57
Post #1

Правь статус, ####!111
**************
Group: Металариец
Posts: 30,888
Releases: 22762
From: Г.Харьков
On Forums: 10 years 6 months
Thanks: 476311 time(s)
Unknown


(IMG:https://metalarea.org/images/audiocovers/2022_May/acov_tid365437_thumb.jpg)

*Artist: Livonia
*Album: Livonia
*Year: 2022
*Genre: Melodic Death Metal
*Country: Argentina (IMG:https://metalarea.org/forum/style_images/flags/Argentina.png)
*Format: mp3@CBR320kbps
*Size: 139MB

Tracklist:
1. Novilunium 01:27 instrumental
2. Ragnarök 06:00
3. Hordas siniestras 06:16
4. Hijos de la evolución 04:52
5. Roma 06:35
6. Montañas de la demencia 06:22
7. Cazadora sombría 05:21
8. Rosa pesadilla 03:47
9. Sangre y lágrimas 05:13
10. Alquimia del dolor 07:06
11. Rey de huesos 07:50
******************************
Total playing time: 1:00:49




Extended info
Samuel Agüero Bass
Bianca Falcón Drums
Fernando Falcón Guitars
Marcelo Perea Guitars
Tomás Carrizo Keyboards
Marcos Domínguez Vocals



Technical info
(IMG:https://metalarea.org/images/spectrogram/2022_May/1db0822be8246209b03aeba28cabccb5.png)
Input File: 07 - Cazadora Sombría.mp3
Channels : 2
Sample Rate : 44100
Precision : 16-bit
Duration : 00:05:22.03 = 14201611 samples = 24152.4 CDDA sectors
File Size : 12.9M
Bit Rate : 320k
Sample Encoding: MPEG audio (layer I, II or III)
Comments :
Title=Cazadora Sombría
Artist=Livonia
Album=Livonia
Tracknumber=7
Year=2022



Register


Go to the top of the page
  Insert nick Quick quote
+Quote Post
 
Start new topic
Replies (1 - 1)
post May 29 2022, 19:39:37
Post #2

Мегаманьяк
***********
Group: Металариец
Posts: 1,835
Releases: 0
From: Мелитополь
On Forums: 14 years 10 months
Thanks: 1315 time(s)
Russian Federation


ЦИТАТА(Samaritianin @ May 29 2022, 17:55:57) *
11. Rey de huesos 07:50

Ругательства какие-то)


Thanks:
Go to the top of the page
  Insert nick Quick quote
+Quote Post

Reply to this topicStart new topic
1 User(s) are reading this topic (1 Guests and 0 Anonymous Users)
0 Members:

 



- Lo-Fi Version Support form
Copyrights and abuse reports form
Time is now: 30th November 2022 - 07:24:32