Welcome Guest ( Log In | Register )

> Olhava - Reborn (2022), Atmospheric/Post-Black Metal (D5)
post May 29 2022, 19:08:19
Post #1

Правь статус, ####!111
**************
Group: Металариец
Posts: 5,736
Releases: 5254
From: Одесса
On Forums: 14 years 6 months
Thanks: 61464 time(s)
Ukraine


(IMG:http://metalarea.org/images/audiocovers/2022_May/acov_tid365443_thumb.jpg)

*Artist: Olhava
*Album: Reborn
*Year: 2022
*Genre: Atmospheric/Post-Black Metal
*Country: Russian Federation (IMG:http://metalarea.org/forum/style_images/flags/Russian%20Federation.png)
*Format: mp3@CBR320kbps
*Size: 180MB

Tracklist:
1. Mirror 22:29
2. Reflection 22:28 instrumental
3. Reborn I 18:00
4. Reborn II 16:07
******************************
Total playing time: 1:19:04




Extended info
Line - up:

Andrey Novozhilov - Guitars, Vocals (Trna, ex-Princ Persii, Reverb on Repeat, The Last Before Falling)
Tim Yusupov - Drums, Guitars on track 2 (Somn, Trna, ex-Austen, Cliff Ruin)

Reborn explores yet another side of the relationship between man and nature. In a darker turn, the duo presents a more pessimistic and cautionary reflection on the environment in contrast to previous albums.

Reborn is a story about a man who forgot what brought him here. Who neglected a precious, parental, and primordial bond with nature; who unconsciously destroys the one and only home we all share, along with himself.

The irreversible damage we do to our environment will see mankind “beheaded”, whilst nature and life itself will thrive eternally.

We’d like to believe though that if we realised the value of that bond and embraced it, we’d be given a glimpse of hope in this fatalistic madness - a chance to be spared.

The cover art by MarGoat of exhausted Mother Nature ritualistically destroying and cleansing herself of humanity using human hands as her very own tools forces us to reflect on our significane. She is about to be Reborn in a new floral form.


Technical info
(IMG:http://metalarea.org/images/spectrogram/2022_May/b08fde3fce88b24b84110f4b02f2a07b.png)
Input File: 01 Mirror.mp3
Channels : 2
Sample Rate : 44100
Precision : 16-bit
Duration : 00:22:30.19 = 59543335 samples = 101264 CDDA sectors
File Size : 54.0M
Bit Rate : 320k
Sample Encoding: MPEG audio (layer I, II or III)
Comments :
Title=Mirror
Artist=Olhava
Album=Reborn
Tracknumber=1
Year=2022
Genre=Atmospheric | Post-Black Metal



Register


Go to the top of the page
  Insert nick Quick quote
+Quote Post
 
Start new topic
Replies (1 - 7)
post May 30 2022, 10:41:40
Post #2

Четыре Литра
****
Group: Металариец
Posts: 359
Releases: 0
From: Калуга
On Forums: 4 years 10 months
Thanks: 118 time(s)
Russian Federation


Как всегда отлично.
Go to the top of the page
  Insert nick Quick quote
+Quote Post
post May 30 2022, 11:18:41
Post #3

королева бала
**********
Group: Металариец
Posts: 1,171
Releases: 0
On Forums: 15 years 7 months
Thanks: 772 time(s)
Russian Federation


метал хороший, амбиент унылый и так себе.


Thanks:
(1) dimpa,
Go to the top of the page
  Insert nick Quick quote
+Quote Post
post Jun 1 2022, 07:15:31
Post #4

Четыре Литра
****
Group: Металариец
Posts: 373
Releases: 0
From: TheМля
On Forums: 16 years 2 months
Thanks: 128 time(s)
Belarus


Да и метал такое себе. Никаких откровений. Запустили сэмпл и ага. А шум трубы-эмбиент, так вообще мусор. Итог-третьесорт.


Thanks:
(1) judaz,
Go to the top of the page
  Insert nick Quick quote
+Quote Post
post Jun 1 2022, 16:02:41
Post #5

ЗмееЛев
*********
Group: Металариец
Posts: 920
Releases: 18
On Forums: 11 years 7 months
Thanks: 2145 time(s)
Russian Federation


Музыка впечатляет, но все впечатления тонут в воде эмбиента. Жаль(
Go to the top of the page
  Insert nick Quick quote
+Quote Post
post Jun 3 2022, 13:27:09
Post #6

Правь статус, ####!111
**************
Group: Металариец
Posts: 51,960
Releases: 957
On Forums: 13 years 6 months
Thanks: 48772 time(s)
Russian Federation


Чо, Daale, опять шедевр? (IMG:style_emoticons/default/1488.gif)
Go to the top of the page
  Insert nick Quick quote
+Quote Post
post Jun 3 2022, 13:54:00
Post #7

Trickster
Group Icon
Group: V.I.P
Posts: 5,238
Releases: 319
On Forums: 11 years 9 months
Thanks: 13989 time(s)
Russian Federation


vosmidesijatye, Я писал хотя бы к одному релизу Olhava, что шедевр? (IMG:style_emoticons/default/hmm.gif)

Другое дело, что я знаком с творчеством еще до момента паузы, а затем и с момента возвращения Андрея к творчеству и привлечения к работе Тимура. Да, альбом мне понравился. Отличный blackgaze, на 100% по канонам жанра и в стандарте одного.

К эмбиенту тоже претензий нет. С точки зрения дрон эмбиента неплохо, без откровений, но мне впечатлений не испортило ни на йоту.

ЦИТАТА(dimpa @ 1st June 2022 - 11:15:31) *
Запустили сэмпл и ага


Опять любитель метала, закинув 777, не разбираясь в жанре, несет околесицу
Go to the top of the page
  Insert nick Quick quote
+Quote Post
post Jul 3 2022, 15:46:42
Post #8

кручу наждак
**************
Group: Металариец
Posts: 5,805
Releases: 107
From: Самара
On Forums: 12 years 6 months
Thanks: 4550 time(s)
Russian Federation


Абсолютно фоновая банальщина, пусть и неплохо сыгранная.
Go to the top of the page
  Insert nick Quick quote
+Quote Post

Reply to this topicStart new topic
2 User(s) are reading this topic (2 Guests and 0 Anonymous Users)
0 Members:

 



- Lo-Fi Version Support form
Copyrights and abuse reports form
Time is now: 3rd December 2022 - 15:53:43