Welcome Guest ( Log In | Register )

> Hypermass - Empyrean (2022), Melodic Death Metal
post Jun 2 2022, 12:58:56
Post #1

Serial Uploader
Group Icon
Group: V.I.P
Posts: 39,314
Releases: 37449
From: Lithuania
On Forums: 14 years 5 months
Thanks: 469549 time(s)
Lithuania


(IMG:https://metalarea.org/images/audiocovers/2022_Jun/acov_tid365576_thumb.jpg)

*Artist: Hypermass
*Album: Empyrean
*Year: 2022
*Genre: Melodic Death Metal
*Country: Norway (IMG:https://metalarea.org/forum/style_images/flags/Norway.png)
*Format: mp3@CBR320kbps
*Size: 98MB

Tracklist:
01. The Constant 02:12
02. Hivemind 04:41
03. The Degenerate Strain 04:57
04. Null and Void 04:02
05. To Dissect and Serve 05:26
06. Behind the Leviathan 06:19
07. Equalizer 04:25
08. Empyrean 04:54
09. Motherdome 04:48
******************************
Total playing time: 41:44




(IMG:https://metalarea.org/images/youtube.png)

Technical info
(IMG:https://metalarea.org/images/spectrogram/2022_Jun/7ea0322357e513f247ce99e94f7c2098.png)
Input File: 02 - Hivemind.mp3
Channels : 2
Sample Rate : 44100
Precision : 16-bit
Duration : 00:04:41.00 = 12392100 samples = 21075 CDDA sectors
File Size : 11.5M
Bit Rate : 328k
Sample Encoding: MPEG audio (layer I, II or III)
Comments :
Title=Hivemind
Artist=Hypermass
Album=Empyrean
Tracknumber=2
Year=2022-06-03
Genre=Metal
Discnumber=1



Register


Go to the top of the page
  Insert nick Quick quote
+Quote Post
 
Start new topic
Replies (1 - 4)
post Jun 2 2022, 14:00:42
Post #2

Ъ
**************
Group: Металариец
Posts: 11,110
Releases: 9
On Forums: 13 years 10 months
Thanks: 2237 time(s)
Sweden


Надо хотябы модерн добавить, тут каша из стилей, не сказать чтобы интересная, дальше превью не потянули.


Thanks:
(1) alexeyinc,
Go to the top of the page
  Insert nick Quick quote
+Quote Post
post Jun 2 2022, 19:37:49
Post #3

brutalcesar
**************
Group: Металариец
Posts: 18,593
Releases: 76
From: Рязань
On Forums: 13 years 10 months
Thanks: 10857 time(s)
Russian Federation


Да, это перебор.
И груува лохмотья и кусочки кора/модерна, технично-мелодично - всё пошло на растопку (IMG:style_emoticons/default/crazy.gif)


Thanks:
(1) Andrew,
Go to the top of the page
  Insert nick Quick quote
+Quote Post
post Jun 3 2022, 11:38:34
Post #4

Тридцать три года на борту "тяжёлого" крейсера
**************
Group: Металариец
Posts: 2,965
Releases: 0
From: Питер
On Forums: 15 years 5 months
Thanks: 941 time(s)
Russian Federation


progressive melodic death
очень неплохая работа норвежских ребят
Go to the top of the page
  Insert nick Quick quote
+Quote Post
post Jun 10 2022, 19:42:55
Post #5

MDM-Thrash Metal
**************
Group: Металариец
Posts: 11,482
Releases: 1602
From: Одесса
On Forums: 15 years 3 months
Thanks: 37793 time(s)
Ukraine


ЦИТАТА(cesar @ Jun 2 2022, 21:37:49) *
Да, это перебор.
И груува лохмотья и кусочки кора/модерна, технично-мелодично - всё пошло на растопку (IMG:style_emoticons/default/crazy.gif)

Да уж, мешанина лютая.
Go to the top of the page
  Insert nick Quick quote
+Quote Post

Reply to this topicStart new topic
2 User(s) are reading this topic (2 Guests and 0 Anonymous Users)
0 Members:

 



- Lo-Fi Version Support form
Copyrights and abuse reports form
Time is now: 3rd December 2022 - 17:01:33