Welcome Guest ( Log In | Register )

Объявления

* gmail.com упорно продолжает считать почту с нас "unsolicited" и отбивает в том числе и письма активации, поэтому просьба использовать альтернативные почтовые ящики.
------------
* gmail.com continues reject all mail from us as "unsolicited" (activation mails too) therefore please use alternate mail servers.
> Putrefaction - Unearthed [ep] (2022), Old School Death Metal (D11)
post Jun 3 2022, 05:27:48
Post #1

Правь статус, ####!111
**************
Group: Металариец
Posts: 8,946
Releases: 7184
On Forums: 13 years 6 months
Thanks: 126572 time(s)
Italy


(IMG:https://metalarea.org/images/audiocovers/2022_Jun/acov_tid365614_thumb.jpg)

*Artist: Putrefaction
*Album: Unearthed [ep]
*Year: 2022
*Genre: Old School Death Metal
*Country: Norway (IMG:https://metalarea.org/forum/style_images/flags/Norway.png)
*Format: mp3@CBR320kbps
*Size: 25MB

Tracklist:
01.Darkness Deceives 03:37
02.Born in Blasphemy 03:42
03.Mass Cremation 03:57
******************************
Total playing time: 11:16



Extended info
Putrefaction was an early nineties death metal band which showed the first musical footsteps of Aphazel & Grimm, who'd later form the black metal band Ancient. This 7"ep presents the original 1992 demo recorded at the USF Verftet Lydstudio, Bergen, 1992.


Technical info
(IMG:https://metalarea.org/images/spectrogram/2022_Jun/8b762b2f960579f716e401dfbe93b2f5.png)
Input File: 01 - Darkness Deceives.mp3
Channels : 2
Sample Rate : 44100
Precision : 16-bit
Duration : 00:03:37.41 = 9587605 samples = 16305.5 CDDA sectors
File Size : 8.74M
Bit Rate : 322k
Sample Encoding: MPEG audio (layer I, II or III)
Comments :
Title=Darkness Deceives
Artist=Putrefaction
Album=Unearthed
Tracknumber=01
Year=2022
Genre=Death Metal



Register


Go to the top of the page
  Insert nick Quick quote
+Quote Post
 
Start new topic
Replies (1 - 6)
post Jun 3 2022, 08:52:18
Post #2

Правь статус, ####!111
**************
Group: Металариец
Posts: 8,946
Releases: 7184
On Forums: 13 years 6 months
Thanks: 126572 time(s)
Italy


FLAC 86MB
Register


Go to the top of the page
  Insert nick Quick quote
+Quote Post
post Jun 3 2022, 15:27:04
Post #3

brutalcesar
**************
Group: Металариец
Posts: 18,792
Releases: 77
From: Рязань
On Forums: 15 years 4 months
Thanks: 11261 time(s)
Russian Federation


Удивительно хороший звук для демки 1992 года... Или так причесали в современных реалиях
А в общем только для фанатов Ancienta, если остались ещё фанаты отдельно взятых банд (IMG:style_emoticons/default/crazy.gif) В остальном материал неактуальный уж совсем


Thanks:
(1) Occultas,
Go to the top of the page
  Insert nick Quick quote
+Quote Post
post Jun 3 2022, 16:19:16
Post #4

Восемь Литров
********
Group: Металариец
Posts: 811
Releases: 0
From: where the sun slumbers
On Forums: 15 years 11 months
Thanks: 394 time(s)
Unknown


QUOTE
Putrefaction was an early nineties death metal band which showed the first musical footsteps of Aphazel & Grimm, who'd later form the black metal band Ancient. This 7"ep presents the original 1992 demo recorded at the USF Verftet Lydstudio, Bergen, 1992.

Прикольно, даже на архивах нет инфы. Никогда не знал, что они дэт нарезали до Ancient (IMG:style_emoticons/default/smile1.gif)


Thanks:
(1) Occultas,
Go to the top of the page
  Insert nick Quick quote
+Quote Post
post Jun 4 2022, 00:26:12
Post #5

De Mysteriis Dom Sathanas
**************
Group: Металариец
Posts: 4,800
Releases: 64
From: Doom
On Forums: 15 years 10 months
Thanks: 4284 time(s)
Russian Federation


ЦИТАТА(cesar @ Jun 3 2022, 17:27:04) *
Удивительно хороший звук для демки 1992 года... Или так причесали в современных реалиях
А в общем только для фанатов Ancienta, если остались ещё фанаты отдельно взятых банд (IMG:style_emoticons/default/crazy.gif) В остальном материал неактуальный уж совсем

Ну да, чисто для фанатов. Вряд ли многим сейчас эта епиха будет интересна


Thanks:
(1) isvili,
Go to the top of the page
  Insert nick Quick quote
+Quote Post
post Feb 6 2023, 09:15:39
Post #6

Четыре Литра
****
Group: Металариец
Posts: 352
Releases: 0
From: Нижегородская обл.
On Forums: 17 years 8 months
Thanks: 377 time(s)
Russian Federation


Register


Thanks:
Go to the top of the page
  Insert nick Quick quote
+Quote Post
post Feb 6 2023, 20:29:59
Post #7

Маньяк
**********
Group: Металариец
Posts: 1,232
Releases: 0
From: Isla de Margarita, Venezuela
On Forums: 5 years 4 months
Thanks: 391 time(s)
Venezuela


QUOTE(Mucupurulence @ Feb 6 2023, 04:15:39) *


no funciona la descarga / загрузка не работает / the download does not work

320kbps (VK link)

Register
Go to the top of the page
  Insert nick Quick quote
+Quote Post

Reply to this topicStart new topic
2 User(s) are reading this topic (2 Guests and 0 Anonymous Users)
0 Members:

 



- Lo-Fi Version Support form
Copyrights and abuse reports form
Time is now: 26th May 2024 - 10:40:41