Welcome Guest ( Log In | Register )

> Lurid - Fire Spell (2022), Black Metal
post Jun 4 2022, 05:46:46
Post #1

Правь статус, ####!111
**************
Group: Металариец
Posts: 6,994
Releases: 5302
On Forums: 12 years 10 months
Thanks: 91728 time(s)
Italy


(IMG:https://metalarea.org/images/audiocovers/2022_Jun/acov_tid365668_thumb.jpg)

*Artist: Lurid
*Album: Fire Spell
*Year: 2022
*Genre: Black Metal
*Country: United States (IMG:https://metalarea.org/forum/style_images/flags/United%20States.png)
*Format: mp3@CBR320kbps
*Size: 75MB

Tracklist:
1.Fear the Fire Spell 05:13
2.Burned at the Stake 05:42
3.Prevarication 03:16
4.The Last Witch 06:32
5.Unchained 07:30
6.A Wasting Plague 04:29
******************************
Total playing time: 32:42



Technical info
(IMG:https://metalarea.org/images/spectrogram/2022_Jun/60fb0229f1c6d53afdf5d928b753bdf4.png)
Input File: 03 - Prevarication.mp3
Channels : 2
Sample Rate : 44100
Precision : 16-bit
Duration : 00:03:16.59 = 8669399 samples = 14743.9 CDDA sectors
File Size : 8.46M
Bit Rate : 344k
Sample Encoding: MPEG audio (layer I, II or III)
Comments :
Title=Prevarication
Artist=Lurid
Album=Fire Spell
Tracknumber=03
Year=2022
Genre=Black Metal



Register


Go to the top of the page
  Insert nick Quick quote
+Quote Post
 
Start new topic
Replies (1 - 6)
post Jun 4 2022, 17:55:41
Post #2

Group: Дух
Posts: 1
Releases: 0
On Forums: 1 year 4 months
Thanks: 2 time(s)
Russian Federation


Отличный альбом!


Thanks:
Go to the top of the page
  Insert nick Quick quote
+Quote Post
post Jun 4 2022, 23:21:28
Post #3

Правь статус, ####!111
**************
Group: Металариец
Posts: 2,296
Releases: 0
On Forums: 14 years 6 months
Thanks: 944 time(s)
Antarctica


Нафиг с таким звуком слушать, высокие на максимум выкрутили и довольны.


Thanks:
Go to the top of the page
  Insert nick Quick quote
+Quote Post
post Jun 7 2022, 15:22:24
Post #4

Austenite
**************
Group: Металариец
Posts: 3,191
Releases: 1
From: Менск
On Forums: 12 years 10 months
Thanks: 1551 time(s)
Madagascar


Интересный по звуку альбом. Чаще замечаю блэк с высокими "балалаечными" гитарами. Тут смесь средних и высоких гитар, подкрепленная гремящими барабанамии и тяжелой ритм секцией. По мелодиям есть элементы канадского блэка и Hate Forest
В целом Classic Black Metal (IMG:style_emoticons/default/true_black.gif) (IMG:style_emoticons/default/true_black.gif) 9.5/10


Thanks:
(1) nsk2008,
Go to the top of the page
  Insert nick Quick quote
+Quote Post
post Sep 18 2023, 18:32:54
Post #5

Пять Литров
*****
Group: Металариец
Posts: 492
Releases: 0
From: Germany
On Forums: 9 years 11 months
Thanks: 19 time(s)
Germany


can anybody reup this file?
Go to the top of the page
  Insert nick Quick quote
+Quote Post
post Sep 19 2023, 17:47:35
Post #6

Пять Литров
*****
Group: Металариец
Posts: 492
Releases: 0
From: Germany
On Forums: 9 years 11 months
Thanks: 19 time(s)
Germany


nobody?
Go to the top of the page
  Insert nick Quick quote
+Quote Post
post Sep 21 2023, 22:04:42
Post #7
BAN
Banned till
Sep 26 2023, 20:46:48



ЦИТАТА(carla667 @ Sep 19 2023, 21:47:35) *
nobody?

Register


Thanks:
Go to the top of the page
  Insert nick Quick quote
+Quote Post

Reply to this topicStart new topic
2 User(s) are reading this topic (2 Guests and 0 Anonymous Users)
0 Members:

 



- Lo-Fi Version Support form
Copyrights and abuse reports form
Time is now: 25th September 2023 - 23:34:22