Welcome Guest ( Log In | Register )

> Releases Upload / Добавление релизов

Добавить релиз тут / Click here to add release
Рекомендованные обменники / Recommended file shares

> Svet - The Truth (2022), Atmospheric Black Metal (D4)
post Jun 4 2022, 13:06:30
Post #1

Правь статус, ####!111
**************
Group: Металариец
Posts: 29,681
Releases: 21833
From: Г.Харьков
On Forums: 10 years 1 month
Thanks: 452741 time(s)
Unknown


(IMG:https://metalarea.org/images/audiocovers/2022_Jun/acov_tid365673_thumb.jpg)

*Artist: Svet
*Album: The Truth
*Year: 2022
*Genre: Atmospheric Black Metal
*Country: Greece (IMG:https://metalarea.org/forum/style_images/flags/Greece.png)
*Format: mp3@CBR320kbps
*Size: 84MB

Tracklist:
1. Helicon (intro) 02:37
2. No External Source Can Save You 06:15
3. I Am the Star 05:08
4. Odysseus (Divergent Path) 04:27
5. Where the Sun Does Not Exist 07:16
6. A Wizard's Spell 05:18
7. Everything Is Just a Dream 06:08
******************************
Total playing time: 37:09




Extended info
Athanasios Everything (2018-present)


Technical info
(IMG:https://metalarea.org/images/spectrogram/2022_Jun/eae6bc4012d361efb8d0cfdfa58f1d61.png)
Input File: 07 - Everything Is Just A Dream.mp3
Channels : 2
Sample Rate : 44100
Precision : 16-bit
Duration : 00:06:08.45 = 16248821 samples = 27634 CDDA sectors
File Size : 14.7M
Bit Rate : 320k
Sample Encoding: MPEG audio (layer I, II or III)
Comments :
Title=Everything Is Just A Dream
Artist=Svet
Album=The Truth
Tracknumber=7
Year=2022



Register


Go to the top of the page
  Insert nick Quick quote
+Quote Post
 
Start new topic
Replies (1 - 5)
post Jun 5 2022, 05:51:49
Post #2

Group: Дух
Posts: 7
Releases: 0
On Forums: 9 years 2 months
Thanks: 2 time(s)
Belarus


Отдаленно чем-то напомнил последний альбом Inquisition.
Go to the top of the page
  Insert nick Quick quote
+Quote Post
post Jun 22 2022, 05:59:50
Post #3

i listen to black metal
**************
Group: Металариец
Posts: 3,354
Releases: 144
From: Москва
On Forums: 15 years 6 months
Thanks: 2447 time(s)
Russian Federation


на бэндкампе: Svet, meaning "Light" in Russian
долго я так не ржал (IMG:style_emoticons/default/15.gif)
Go to the top of the page
  Insert nick Quick quote
+Quote Post
post Jun 22 2022, 22:00:01
Post #4

Правь статус, ####!111
**************
Group: Металариец
Posts: 2,062
Releases: 0
On Forums: 13 years 4 months
Thanks: 847 time(s)
Antarctica


ЦИТАТА(Victim of fate @ 22nd June 2022 - 07:59:50) *
на бэндкампе: Svet, meaning "Light" in Russian
долго я так не ржал 15.gif

В смысле? Это не так переводится?
Go to the top of the page
  Insert nick Quick quote
+Quote Post
post Jun 22 2022, 22:01:28
Post #5

Правь статус, ####!111
**************
Group: Металариец
Posts: 51,011
Releases: 935
On Forums: 13 years 1 month
Thanks: 47699 time(s)
Russian Federation


Если есть тьма, должен быть свет (с)
Go to the top of the page
  Insert nick Quick quote
+Quote Post
post Jun 23 2022, 05:05:17
Post #6

эхо священной пустоты
**************
Group: Металариец
Posts: 5,706
Releases: 0
On Forums: 6 years 5 months
Thanks: 3659 time(s)
Unknown


если есть трындеж, должна быть тишина.
Go to the top of the page
  Insert nick Quick quote
+Quote Post

Reply to this topicStart new topic
2 User(s) are reading this topic (2 Guests and 0 Anonymous Users)
0 Members:

 



- Lo-Fi Version Support form
Copyrights and abuse reports form
Time is now: 6th July 2022 - 17:23:40