Welcome Guest ( Log In | Register )

Объявления

* gmail.com упорно продолжает считать почту с нас "unsolicited" и отбивает в том числе и письма активации, поэтому просьба использовать альтернативные почтовые ящики.
------------
* gmail.com continues reject all mail from us as "unsolicited" (activation mails too) therefore please use alternate mail servers.
> Stratovarius - Survive [single] (2022), Melodic Power Metal (D)
post Jun 4 2022, 17:11:33
Post #1

Правь статус, ####!111
**************
Group: Металариец
Posts: 8,968
Releases: 7206
On Forums: 13 years 6 months
Thanks: 126975 time(s)
Italy


(IMG:https://metalarea.org/images/audiocovers/2022_Jun/acov_tid365682_thumb.jpg)

*Artist: Stratovarius
*Album: Survive [single]
*Year: 2022
*Genre: Melodic Power Metal
*Country: Finland (IMG:https://metalarea.org/forum/style_images/flags/Finland.png)
*Format: mp3@CBR320kbps
*Size: 11MB

Tracklist:
1.Survive 04:39
******************************
Total playing time: 4:39


(IMG:https://metalarea.org/images/youtube.png)

Technical info
(IMG:https://metalarea.org/images/spectrogram/2022_Jun/7c4d4f1901237d2738006bd3d6e64066.png)
Input File: 01-Survive.mp3
Channels : 2
Sample Rate : 44100
Precision : 16-bit
Duration : 00:04:39.27 = 12315675 samples = 20945 CDDA sectors
File Size : 11.4M
Bit Rate : 327k
Sample Encoding: MPEG audio (layer I, II or III)
Comments :
Title=Survive
Artist=Stratovarius
Album=Survive
Tracknumber=01
Year=2022
Genre=Melodic Power Metal



Register


Go to the top of the page
  Insert nick Quick quote
+Quote Post
 
Start new topic
Replies (1 - 6)
post Jun 4 2022, 19:08:19
Post #2

Правь статус, ####!111
**************
Group: Металариец
Posts: 56,003
Releases: 1201
On Forums: 14 years 11 months
Thanks: 54872 time(s)
Russian Federation


Все их ранние релизы по Дримспейс включительно - шедевральны, там неповторимо - особенная этакая мрачноватая атмосферность. На более поздних также имеются шикарные композиции.
Go to the top of the page
  Insert nick Quick quote
+Quote Post
post Jun 5 2022, 23:07:48
Post #3

Шесть Литров
******
Group: Металариец
Posts: 687
Releases: 0
From: Москва
On Forums: 17 years 7 months
Thanks: 157 time(s)
Russian Federation


Звук хорош, сама композиция - так себе.
Go to the top of the page
  Insert nick Quick quote
+Quote Post
post Jun 6 2022, 09:47:42
Post #4

Dark Ambient Shoujo
**********
Group: Металариец
Posts: 1,491
Releases: 5
On Forums: 15 years 4 months
Thanks: 999 time(s)
Russian Federation


Намана.
Go to the top of the page
  Insert nick Quick quote
+Quote Post
post Jun 6 2022, 12:31:09
Post #5

Austenite
**************
Group: Металариец
Posts: 3,192
Releases: 1
From: Менск
On Forums: 13 years 6 months
Thanks: 1631 time(s)
Madagascar


К сожалению стиль указан верно, мелодик к паверу и хэви добавляют из-за попсовго уклона, а не мелодичного.

Очень доставил зубовыбивающий мощный модерновый Nemesis, так вот тут более мягкое и расфокусированое звучание
Go to the top of the page
  Insert nick Quick quote
+Quote Post
post Jun 6 2022, 12:34:24
Post #6

Маньяк
**********
Group: Металариец
Posts: 1,118
Releases: 0
From: Нижний Новгород
On Forums: 14 years 7 months
Thanks: 266 time(s)
Russian Federation


Не могу это слушать. Если бы парни пошли в сторону модернового звучания, ещё куда ни шло. А так - это просто очередной вторичный и третичный материал. Таких много на любой вкус и цвет.
Go to the top of the page
  Insert nick Quick quote
+Quote Post
post Jun 8 2022, 07:18:18
Post #7

Шесть Литров
******
Group: Металариец
Posts: 587
Releases: 0
From: Город Герой Москва!
On Forums: 17 years 9 months
Thanks: 54 time(s)
Russian Federation


звук хороший... трек обычный, прогнал выключил - забыл...


Thanks:
(1) Storky,
Go to the top of the page
  Insert nick Quick quote
+Quote Post

Reply to this topicStart new topic
2 User(s) are reading this topic (2 Guests and 0 Anonymous Users)
0 Members:

 



- Lo-Fi Version Support form
Copyrights and abuse reports form
Time is now: 30th May 2024 - 22:46:59