Welcome Guest ( Log In | Register )

> Seventh Wonder - The Testament (2022), Progressive Metal (D)
post Jun 9 2022, 11:28:01
Post #1

Serial Uploader
Group Icon
Group: V.I.P
Posts: 39,534
Releases: 37658
From: Lithuania
On Forums: 14 years 7 months
Thanks: 473668 time(s)
Lithuania


(IMG:https://metalarea.org/images/audiocovers/2022_Jun/acov_tid365852_thumb.jpg)

*Artist: Seventh Wonder
*Album: The Testament
*Year: 2022
*Genre: Progressive Metal
*Country: Sweden (IMG:https://metalarea.org/forum/style_images/flags/Sweden.png)
*Format: mp3@CBR320kbps
*Size: 124MB

Tracklist:
01. Warriors 04:42
02. The Light 06:19
03. I Carry the Blame 06:06
04. Reflections 05:35
05. The Red River 06:12
06. Invincible 03:39
07. Mindkiller 05:58
08. Under a Clear Blue Sky 08:45
09. Elegy 05:51
******************************
Total playing time: 53:07

(IMG:https://metalarea.org/images/myspace.png)



(IMG:https://metalarea.org/images/youtube.png)

Technical info
(IMG:https://metalarea.org/images/spectrogram/2022_Jun/e7781a2be5fe1af51640fc80b7a4998f.png)
Input File: 02 - The Light.mp3
Channels : 2
Sample Rate : 44100
Precision : 16-bit
Duration : 00:06:19.00 = 16713900 samples = 28425 CDDA sectors
File Size : 15.4M
Bit Rate : 324k
Sample Encoding: MPEG audio (layer I, II or III)
Comments :
Title=The Light
Artist=Seventh Wonder
Album=The Testament
Tracknumber=2
Year=2022-06-10
Discnumber=1



Register


Go to the top of the page
  Insert nick Quick quote
+Quote Post
 
Start new topic
Replies (1 - 4)
post Jun 9 2022, 14:39:32
Post #2

Восемь Литров
********
Group: Металариец
Posts: 880
Releases: 0
From: Sweden
On Forums: 13 years 10 months
Thanks: 33 time(s)
Sweden


Thank you.
Go to the top of the page
  Insert nick Quick quote
+Quote Post
post Jun 9 2022, 16:20:33
Post #3

грызущие вместе
******
Group: Металариец
Posts: 639
Releases: 0
From: Moscow/MO
On Forums: 16 years 2 months
Thanks: 223 time(s)
Russian Federation


Тут Каревик на своем месте смотрится, а в Камелот - нет (IMG:style_emoticons/default/genius.gif)
Go to the top of the page
  Insert nick Quick quote
+Quote Post
post Jun 9 2022, 20:13:57
Post #4

Тридцать три года на борту "тяжёлого" крейсера
**************
Group: Металариец
Posts: 2,980
Releases: 0
From: Питер
On Forums: 15 years 7 months
Thanks: 948 time(s)
Russian Federation


шикарная работа!
Go to the top of the page
  Insert nick Quick quote
+Quote Post
post Jan 24 2023, 19:41:31
Post #5

Шесть Литров
******
Group: Металариец
Posts: 511
Releases: 0
From: германия
On Forums: 14 years 1 month
Thanks: 185 time(s)
Russian Federation


перезалейте плиз! (IMG:style_emoticons/default/pray.gif)

https://disk.yandex.ru/d/0DPzsoCAk_H1JQ


Thanks:
Go to the top of the page
  Insert nick Quick quote
+Quote Post

Reply to this topicStart new topic
1 User(s) are reading this topic (1 Guests and 0 Anonymous Users)
0 Members:

 



- Lo-Fi Version Support form
Copyrights and abuse reports form
Time is now: 28th January 2023 - 21:18:03