Welcome Guest ( Log In | Register )

> Lunar Chalice - Transcendentia: The Shadow Pilgrimage (2022), Black Metal
post Jun 9 2022, 18:07:53
Post #1

Absorbence
**************
Group: Металариец
Posts: 2,159
Releases: 438
From: Vastland Abyss of Cthulhu
On Forums: 16 years 3 weeks
Thanks: 7515 time(s)
United States


(IMG:https://metalarea.org/images/audiocovers/2022_Jun/acov_tid365893_thumb.jpg)

*Artist: Lunar Chalice
*Album: Transcendentia: The Shadow Pilgrimage
*Year: 2022
*Genre: Black Metal
*Country: Germany (IMG:https://metalarea.org/forum/style_images/flags/Germany.png)
*Format: mp3@CBR320kbps
*Size: 93MB

Tracklist:
1. The Accusation 01:42
2. Calix Cum Velum 05:32
3. Immortuae 07:43
4. Descending Shadows 07:57
5. The Saturn Rite 01:41
6. The Astral Stargate 06:39
7. Flagellationis Diaboli 07:27
8. Nocturnalia 02:22
******************************
Total playing time: 41:03



Preview 2


Technical info
(IMG:https://metalarea.org/images/spectrogram/2022_Jun/2b0f572be2942f1aea431b91c46a278b.png)
Input File: 08. Lunar Chalice - Nocturnalia.mp3
Channels : 2
Sample Rate : 48000
Precision : 16-bit
Duration : 00:02:22.42 = 6836112 samples ~ 10681.4 CDDA sectors
File Size : 5.70M
Bit Rate : 320k
Sample Encoding: MPEG audio (layer I, II or III)
Comments :
Title=Nocturnalia
Artist=Lunar Chalice
Album=Transcendentia: The Shadow Pilgrimage
Tracknumber=08/08
Year=2022
Genre=138



Register


Go to the top of the page
  Insert nick Quick quote
+Quote Post
 
Start new topic
Replies (1 - 6)
post Jun 15 2022, 14:54:45
Post #2

Семь Литров
*******
Group: Металариец
Posts: 777
Releases: 15
From: Brasil - Sao Paulo
On Forums: 2 years 7 months
Thanks: 678 time(s)
Brazil


QUOTE(Occultas @ Jun 15 2022, 14:32:57) *
тоже самое,

They're not the same properties but I don't know, I found this on the web, so I can't tell.
Can I ask what software you're using to analize the tracks?


Thanks:
Go to the top of the page
  Insert nick Quick quote
+Quote Post
post Jun 15 2022, 15:40:59
Post #3

Common dweller of hell
**************
Group: Металариец
Posts: 4,497
Releases: 12
From: Dnipro
On Forums: 14 years 4 months
Thanks: 1781 time(s)
Ukraine


Отличный альбом (IMG:style_emoticons/default/20.gif)
Может у кого FLAC есть?


Thanks:
(1) Occultas,
Go to the top of the page
  Insert nick Quick quote
+Quote Post
post Jul 19 2022, 20:04:21
Post #4

Мегаманьяк
***********
Group: Металариец
Posts: 1,579
Releases: 0
On Forums: 13 years 9 months
Thanks: 618 time(s)
South Korea


QUOTE(Occultas @ Jul 17 2022, 16:11:20) *
в шапке youtube rip,

залейте flac or original 320, спасибо


Thank you, Occultas.

Just like Mencae77, I can't really tell if a file is ripped from Youtube.

Could you please tell us if these are also ripped from Youtube or if they are a genuine 320 kbps?
(Or perhaps, if you can tell us how to verify this with relative ease.... I checked a few sites, but they were a bit beyond me...)

I suspect that these are from the same source that Mencae77 mentioned above, but just in case...

320 kbps from the neighborhood on the web:

1.

Register


Register


Thanks to Artscald!

2.

Register


Register


Thanks to getmetal!

Many thanks in advance!


Thanks:
Go to the top of the page
  Insert nick Quick quote
+Quote Post
post Jul 21 2022, 18:28:58
Post #5

Мегаманьяк
***********
Group: Металариец
Posts: 1,579
Releases: 0
On Forums: 13 years 9 months
Thanks: 618 time(s)
South Korea


QUOTE(Occultas @ Jul 21 2022, 18:10:20) *
youtube rip,

залейте оригинальное качество, спасибо.


Thanks a lot for checking them out! I really appreciate it!


Thanks:
Go to the top of the page
  Insert nick Quick quote
+Quote Post
post Jul 23 2022, 18:56:22
Post #6

Common dweller of hell
**************
Group: Металариец
Posts: 4,497
Releases: 12
From: Dnipro
On Forums: 14 years 4 months
Thanks: 1781 time(s)
Ukraine


ЦИТАТА(kimkayoung @ Jul 21 2022, 20:28:58) *
Thanks a lot for checking them out! I really appreciate it!

Никакой разницы нет, что в шапке, что по ссылкам kimkayoung один и тот же рип.


Thanks:
(1) Occultas,
Go to the top of the page
  Insert nick Quick quote
+Quote Post
post Jul 23 2022, 19:10:32
Post #7

MDM-Thrash Metal
**************
Group: Металариец
Posts: 11,482
Releases: 1602
From: Одесса
On Forums: 15 years 3 months
Thanks: 37793 time(s)
Ukraine


https://www.youtube.com/watch?v=sfWXvL7qj-M (FULL ALBUM)
https://www.youtube.com/watch?v=A8JEBRKr7VE
https://www.youtube.com/watch?v=LMTe5DJca4c


Thanks:
(1) Occultas,
Go to the top of the page
  Insert nick Quick quote
+Quote Post

Reply to this topicStart new topic
2 User(s) are reading this topic (2 Guests and 0 Anonymous Users)
0 Members:

 



- Lo-Fi Version Support form
Copyrights and abuse reports form
Time is now: 3rd December 2022 - 16:58:49