Welcome Guest ( Log In | Register )

> Wildernis - The Apocalyptic Burp (2022), Folk Metal
post Jun 13 2022, 18:35:29
Post #1

Правь статус, ####!111
**************
Group: Металариец
Posts: 30,888
Releases: 22762
From: Г.Харьков
On Forums: 10 years 6 months
Thanks: 476312 time(s)
Unknown


(IMG:https://metalarea.org/images/audiocovers/2022_Jun/acov_tid366054_thumb.jpg)

*Artist: Wildernis
*Album: The Apocalyptic Burp
*Year: 2022
*Genre: Folk Metal
*Country: Belgium (IMG:https://metalarea.org/forum/style_images/flags/Belgium.png)
*Format: mp3@CBR320kbps
*Size: 108MB

Tracklist:
1. The Only Thing We Need
2. Freebird
3. Drunken In The Forest
4. Angel
5. Another Pint
6. My Precious
7. My Little Mermin
8. The Burps Song
9. The Spirit Of The Druid
10. A Fact
11. The Druid
12. The Old Oak
******************************
Total playing time: 47:28



Extended info


Technical info
(IMG:https://metalarea.org/images/spectrogram/2022_Jun/762f350dbd47b7b2452c847fa6493932.png)
Input File: 07 - My Little Mermin.mp3
Channels : 2
Sample Rate : 44100
Precision : 16-bit
Duration : 00:04:01.49 = 10649797 samples = 18111.9 CDDA sectors
File Size : 9.66M
Bit Rate : 320k
Sample Encoding: MPEG audio (layer I, II or III)
Comments :
Title=My Little Mermin
Artist=Wildernis
Album=The Apocalyptic Burp
Tracknumber=7
Year=2022



Register


Go to the top of the page
  Insert nick Quick quote
+Quote Post
 
Start new topic
Replies (1 - 1)
post Jun 14 2022, 06:04:12
Post #2

hearer & reader
**************
Group: Металариец
Posts: 10,442
Releases: 225
From: Moscow
On Forums: 15 years 2 months
Thanks: 12859 time(s)
Russian Federation



Три брата-акробата.


Thanks:
Go to the top of the page
  Insert nick Quick quote
+Quote Post

Reply to this topicStart new topic
2 User(s) are reading this topic (2 Guests and 0 Anonymous Users)
0 Members:

 



- Lo-Fi Version Support form
Copyrights and abuse reports form
Time is now: 30th November 2022 - 07:57:42