Welcome Guest ( Log In | Register )

> Releases Upload / Добавление релизов

Добавить релиз тут / Click here to add release
Рекомендованные обменники / Recommended file shares

> Otis Archer - III. Famine [ep] (2022), Progressive Sludge/Stoner Metal
post Jun 14 2022, 18:03:50
Post #1

Правь статус, ####!111
**************
Group: Металариец
Posts: 5,309
Releases: 4858
From: Одесса
On Forums: 14 years 2 months
Thanks: 57128 time(s)
Ukraine


(IMG:http://metalarea.org/images/audiocovers/2022_Jun/acov_tid366083_thumb.jpg)

*Artist: Otis Archer
*Album: III. Famine [ep]
*Year: 2022
*Genre: Progressive Sludge/Stoner Metal
*Country: United States (IMG:http://metalarea.org/forum/style_images/flags/United%20States.png)
*Format: mp3@CBR320kbps
*Size: 65MB

Tracklist:
1. Winter 09:58
2. The Bay 04:00
3. Sleeping Demons 07:00
4. Hell's Bells 06:02
******************************
Total playing time: 27:00



Extended info
Line - up:

Jordan Jensen - Drums (ex-Dark Sermon, ex-Creatures of Habit)
Otis Archer - Vocals, Guitars, Bass


Technical info
(IMG:http://metalarea.org/images/spectrogram/2022_Jun/f408972c45556248aa40de8cf42a5c75.png)
Input File: 02 - the bay.mp3
Channels : 2
Sample Rate : 44100
Precision : 16-bit
Duration : 00:04:00.33 = 10598685 samples = 18025 CDDA sectors
File Size : 9.62M
Bit Rate : 320k
Sample Encoding: MPEG audio (layer I, II or III)
Comments :
Title=the bay
Artist=Otis Archer
Album=III. Famine (EP)
Tracknumber=02
Year=2022
Genre=Progressive Sludge | Stoner Metal



Register


Thanks:
Go to the top of the page
  Insert nick Quick quote
+Quote Post
 
Start new topic
Replies (1 - 1)
post Jun 22 2022, 17:50:24
Post #2

Русский
*****
Group: Металариец
Posts: 480
Releases: 0
From: Москва
On Forums: 15 years 11 months
Thanks: 182 time(s)
Russian Federation


4. Hell's Bells 06:02

AC/DC
Go to the top of the page
  Insert nick Quick quote
+Quote Post

Reply to this topicStart new topic
1 User(s) are reading this topic (1 Guests and 0 Anonymous Users)
0 Members:

 



- Lo-Fi Version Support form
Copyrights and abuse reports form
Time is now: 11th August 2022 - 19:49:11