Welcome Guest ( Log In | Register )

> Grindead - Culture Decline/Machines Arise (2022), Death Metal/Grindcore
post Jun 15 2022, 04:48:41
Post #1

MDM-Thrash Metal
**************
Group: Металариец
Posts: 11,375
Releases: 1581
From: Одесса
On Forums: 15 years 1 month
Thanks: 37389 time(s)
Ukraine


(IMG:http://metalarea.org/images/audiocovers/2022_Jun/acov_tid366096_thumb.jpg)

*Artist: Grindead
*Album: Culture Decline/Machines Arise
*Year: 2022
*Genre: Death Metal/Grindcore
*Country: Portugal (IMG:http://metalarea.org/forum/style_images/flags/Portugal.png)
*Format: mp3@CBR320kbps
*Size: 100MB

Tracklist:
1. D.O.G. 00:21
2. Bite 01:09
3. Suicide Attempt 01:57
4. The Great Territory of Dread 04:03
5. Those Who Condemn 02:35
6. Scenario of Total Resignation 02:55
7. Turn Black 02:31
8. Cut-Throat 02:30
9. A Reasoning in Hunger 03:53
10. G.O.D. 00:15
11. Death Calling 03:32
12. The Flood 02:46
13. Coercion Flag 02:46
14. Castaway 02:56
15. P.M.C.C. 03:39
16. Malignant Faith 02:10
17. Demoncratic Machine 03:54
******************************
Total playing time: 43:52



(IMG:http://metalarea.org/images/youtube.png)
(IMG:http://metalarea.org/images/youtube.png)
(IMG:http://metalarea.org/images/youtube.png)

Extended info
David Teves Reis Bass
See also: ex-Mysterium
Miguel Brandão Drums
See also: Assassinner, ex-Agnosia, ex-Faceless, ex-Web, ex-Fears Tomb, ex-Hybrid Corp.
Mario Ribeiro Guitars
See also: ex-Raising Fear, ex-Genocide
Luís Vocals
See also: Genocide, Scrambled Corpses


Technical info
(IMG:http://metalarea.org/images/spectrogram/2022_Jun/d8d36d5765127d1a0da977db5c436b63.png)
Input File: 02_grindead_bite.mp3
Channels : 2
Sample Rate : 44100
Precision : 16-bit
Duration : 00:01:10.04 = 3088676 samples = 5252.85 CDDA sectors
File Size : 2.80M
Bit Rate : 320k
Sample Encoding: MPEG audio (layer I, II or III)
Comments :
Title=Bite
Artist=Grindead
Album=Culture Decline / Machines Arise
Tracknumber=02
Year=2022
Genre=Death



Register


Go to the top of the page
  Insert nick Quick quote
+Quote Post
 
Start new topic
Replies (1 - 4)
post Jun 15 2022, 18:22:23
Post #2

Сволочь обыкновенная
**************
Group: Металариец
Posts: 3,003
Releases: 186
From: Брест
On Forums: 14 years 5 months
Thanks: 4799 time(s)
Belarus


Уххх, прям приятно удивили. Задел под классический grind в духе первых альбомов Brutal Truth и Napalm Death периода Utopa Banished плюс куча разных ништяков в виде вкралений индастриала .
С большим удовольствиtм слушаю, несмотря на огрехи в звуке. Зацепило определенно, видимо мы на одной волне.


Thanks:
Go to the top of the page
  Insert nick Quick quote
+Quote Post
post Jun 15 2022, 20:00:18
Post #3

Четыре Литра
****
Group: Металариец
Posts: 312
Releases: 0
On Forums: 2 years 4 months
Thanks: 10 time(s)
Portugal



Possible FLAC?
Go to the top of the page
  Insert nick Quick quote
+Quote Post
post Jun 16 2022, 16:27:24
Post #4

Три Литра
***
Group: Завсегдатай
Posts: 285
Releases: 0
From: Нижегородская обл.
On Forums: 16 years 2 weeks
Thanks: 297 time(s)
Russian Federation


ЦИТАТА(spazm @ 15th June 2022 - 20:22:23) *
Уххх, прям приятно удивили. Задел под классический grind в духе первых альбомов Brutal Truth и Napalm Death периода Utopa Banished плюс куча разных ништяков в виде вкралений индастриала .
С большим удовольствиtм слушаю, несмотря на огрехи в звуке. Зацепило определенно, видимо мы на одной волне.

релиз крайне порадовал, но собственно, что хочу поведать - благодаря твоему комменту, набрёл на проект их вокалиста - Genocide с которым тоже стоит ознакомиться (IMG:style_emoticons/default/banana.gif)


Thanks:
(1) spazm,
Go to the top of the page
  Insert nick Quick quote
+Quote Post
post Jun 19 2022, 08:01:15
Post #5

Сволочь обыкновенная
**************
Group: Металариец
Posts: 3,003
Releases: 186
From: Брест
On Forums: 14 years 5 months
Thanks: 4799 time(s)
Belarus


ЦИТАТА(Mucupurulence @ 16th June 2022 - 18:27:24) *
релиз крайне порадовал, но собственно, что хочу поведать - благодаря твоему комменту, набрёл на проект их вокалиста - Genocide с которым тоже стоит ознакомиться

Вот как оказывается.. А я не потрудился полазить по проектам, а ведь c Genocide то я знаком, два альбом и демка имеются, правда только в цифре. То то думаю, что то они так неплохо валят, а Genocide то с начала 90х, читай отцы. Вот сейчас на этой ноте и переслушаю.


Thanks:
Go to the top of the page
  Insert nick Quick quote
+Quote Post

Reply to this topicStart new topic
1 User(s) are reading this topic (1 Guests and 0 Anonymous Users)
0 Members:

 



- Lo-Fi Version Support form
Copyrights and abuse reports form
Time is now: 25th September 2022 - 13:13:18