Welcome Guest ( Log In | Register )

 
Reply to this topicStart new topic
> The Departed - Excommunicado (2022), Death/Black Metal
post Jun 15 2022, 20:27:48
Post #1

MDM-Thrash Metal
**************
Group: Металариец
Posts: 11,375
Releases: 1581
From: Одесса
On Forums: 15 years 1 month
Thanks: 37387 time(s)
Ukraine


(IMG:http://metalarea.org/images/audiocovers/2022_Jun/acov_tid366115_thumb.jpg)

*Artist: The Departed
*Album: Excommunicado
*Year: 2022
*Genre: Death/Black Metal
*Country: Australia (IMG:http://metalarea.org/forum/style_images/flags/Australia.png)
*Format: mp3@CBR320kbps
*Size: 93MB

Tracklist:
1. Closed Casket 03:28
2. Sacrificial 03:24
3. Imperium 04:12
4. Carnifex 04:20
5. Cabin Fever 03:49
6. Sapientia Potentia Est 04:24
7. Bloodwork 03:35
8. Inverted 04:40
9. No Compromise 03:35
10. Igne Natura Renovatur Integra 04:41
******************************
Total playing time: 40:08



Technical info
(IMG:http://metalarea.org/images/spectrogram/2022_Jun/a19068e8917cc0861f4fe3b74353537d.png)
Input File: 02_the_departed_sacrificial.mp3
Channels : 2
Sample Rate : 44100
Precision : 16-bit
Duration : 00:03:24.45 = 9016157 samples = 15333.6 CDDA sectors
File Size : 8.30M
Bit Rate : 325k
Sample Encoding: MPEG audio (layer I, II or III)
Comments :
Title=Sacrificial
Artist=The Departed
Album=Excommunicado
Tracknumber=2
Year=2022



Register


Go to the top of the page
  Insert nick Quick quote
+Quote Post

Reply to this topicStart new topic
1 User(s) are reading this topic (1 Guests and 0 Anonymous Users)
0 Members:

 



- Lo-Fi Version Support form
Copyrights and abuse reports form
Time is now: 25th September 2022 - 06:07:08