Welcome Guest ( Log In | Register )

> Balrogath - Arcane Sacrifice (2022), Melodic Death/Power Metal
post Jun 16 2022, 08:36:41
Post #1

MDM-Thrash Metal
**************
Group: Металариец
Posts: 11,479
Releases: 1602
From: Одесса
On Forums: 15 years 3 months
Thanks: 37779 time(s)
Ukraine


(IMG:http://metalarea.org/images/audiocovers/2022_Jun/acov_tid366129_thumb.jpg)

*Artist: Balrogath
*Album: Arcane Sacrifice
*Year: 2022
*Genre: Melodic Death/Power Metal
*Country: Canada (IMG:http://metalarea.org/forum/style_images/flags/Canada.png)
*Format: mp3@CBR320kbps
*Size: 136MB

Tracklist:
1. Arcane Sacrifice
2. Dragonfall
3. Land Under Sky
4. Nameless Terror (feat. Scott Oliphant)
5. Fall to Me
6. Mindslayer
7. On Dragons We Ride (feat. Scott Oliphant)
8. Storm Ruler
******************************
Total playing time: 59:41


(IMG:http://metalarea.org/images/youtube.png)
(IMG:http://metalarea.org/images/youtube.png)
(IMG:http://metalarea.org/images/youtube.png)
(IMG:http://metalarea.org/images/youtube.png)

Technical info
(IMG:http://metalarea.org/images/spectrogram/2022_Jun/87edc339d760e23779daeb7d8319963e.png)
Input File: 02 - Dragonfall.mp3
Channels : 2
Sample Rate : 44100
Precision : 16-bit
Duration : 00:06:33.59 = 17357099 samples = 29518.9 CDDA sectors
File Size : 15.7M
Bit Rate : 320k
Sample Encoding: MPEG audio (layer I, II or III)
Comments :
Title=Dragonfall
Artist=Balrogath
Album=Arcane Sacrifice
Tracknumber=2
Year=2022



Register


Go to the top of the page
  Insert nick Quick quote
+Quote Post
 
Start new topic
Replies (1 - 1)
post Jun 17 2022, 05:54:50
Post #2

hearer & reader
**************
Group: Металариец
Posts: 10,442
Releases: 225
From: Moscow
On Forums: 15 years 2 months
Thanks: 12859 time(s)
Russian Federation




Thanks:
Go to the top of the page
  Insert nick Quick quote
+Quote Post

Reply to this topicStart new topic
2 User(s) are reading this topic (2 Guests and 0 Anonymous Users)
0 Members:

 



- Lo-Fi Version Support form
Copyrights and abuse reports form
Time is now: 30th November 2022 - 08:24:38