Welcome Guest ( Log In | Register )

> Releases Upload / Добавление релизов

Добавить релиз тут / Click here to add release
Рекомендованные обменники / Recommended file shares

> Tungsten - Bliss (2022), Heavy/Power Metal (D4)
post Jun 16 2022, 14:13:35
Post #1

Serial Uploader
Group Icon
Group: V.I.P
Posts: 38,720
Releases: 36861
From: Lithuania
On Forums: 14 years 2 months
Thanks: 458347 time(s)
Lithuania


(IMG:https://metalarea.org/images/audiocovers/2022_Jun/acov_tid366144_thumb.jpg)

*Artist: Tungsten
*Album: Bliss
*Year: 2022
*Genre: Heavy/Power Metal
*Country: Sweden (IMG:https://metalarea.org/forum/style_images/flags/Sweden.png)
*Format: mp3@CBR320kbps
*Size: 107MB

Tracklist:
01. In the Center 04:37
02. Dreamers 03:13
03. March Along 03:53
04. Heart of Rust 03:57
05. Come This Way 03:39
06. On the Sea 03:53
07. Bliss 04:13
08. Wonderland 04:40
09. Afraid of Light 02:57
10. Eye of the Storm 03:59
11. Northern Lights 06:27
******************************
Total playing time: 45:28


Preview 2
(IMG:https://metalarea.org/images/youtube.png)

Technical info
(IMG:https://metalarea.org/images/spectrogram/2022_Jun/eda716bb7aace3581f6598c6c35c8953.png)
Input File: 02 - Tungsten - Dreamers.mp3
Channels : 2
Sample Rate : 44100
Precision : 16-bit
Duration : 00:03:13.40 = 8528720 samples = 14504.6 CDDA sectors
File Size : 8.01M
Bit Rate : 331k
Sample Encoding: MPEG audio (layer I, II or III)
Comments :
Title=Dreamers
Artist=Tungsten
Album=Bliss
Tracknumber=2/11
Year=2022
Genre=GetMetal.CLUB
Discnumber=1/1



Register


Go to the top of the page
  Insert nick Quick quote
+Quote Post
 
Start new topic
Replies (1 - 4)
post Jun 16 2022, 17:43:03
Post #2

Мегаманьяк
***********
Group: Металариец
Posts: 1,611
Releases: 0
From: Russian Federation - St.Petersburg
On Forums: 13 years 5 months
Thanks: 456 time(s)
Russian Federation


Судя по видику это какой то не традиционный Heavy/Power Metal (IMG:style_emoticons/default/hmm.gif)
Go to the top of the page
  Insert nick Quick quote
+Quote Post
post Jun 17 2022, 07:44:10
Post #3

Семь Литров
*******
Group: Металариец
Posts: 721
Releases: 0
On Forums: 13 years 1 month
Thanks: 182 time(s)
Ukraine


спасибо,послушаем!!
Go to the top of the page
  Insert nick Quick quote
+Quote Post
post Jun 17 2022, 15:28:53
Post #4

Два Литра
**
Group: Завсегдатай
Posts: 105
Releases: 0
From: Сибирь
On Forums: 13 years 6 months
Thanks: 32 time(s)
Russian Federation


не люблю брюзжать, но тут скучно получилось (в отличие от первых двух альбомов). какое-то монотонно-фоновое месиво, лишённое оригинальности и драйва. может, настроение не то, хз. оставлю на переслушку
Go to the top of the page
  Insert nick Quick quote
+Quote Post
post Jul 20 2022, 18:37:29
Post #5

Перевозчик
**************
Group: Металариец
Posts: 3,437
Releases: 0
On Forums: 14 years 1 month
Thanks: 763 time(s)
Russian Federation


Превью заявленному стилю не соответствует.
Go to the top of the page
  Insert nick Quick quote
+Quote Post

Reply to this topicStart new topic
1 User(s) are reading this topic (1 Guests and 0 Anonymous Users)
0 Members:

 



- Lo-Fi Version Support form
Copyrights and abuse reports form
Time is now: 11th August 2022 - 00:26:16