Welcome Guest ( Log In | Register )

> Releases Upload / Добавление релизов

Добавить релиз тут / Click here to add release
Рекомендованные обменники / Recommended file shares

> Krallice - Psychagogue (2022), Avant-Garde Black Metal (D)
post Jun 18 2022, 05:05:37
Post #1

Правь статус, ####!111
**************
Group: Металариец
Posts: 2,980
Releases: 1518
On Forums: 11 years 7 months
Thanks: 29827 time(s)
Russian Federation


(IMG:https://metalarea.org/images/audiocovers/2022_Jun/acov_tid366206_thumb.jpg)

*Artist: Krallice
*Album: Psychagogue
*Year: 2022
*Genre: Avant-Garde Black Metal
*Country: United States (IMG:https://metalarea.org/forum/style_images/flags/United%20States.png)
*Format: mp3@CBR320kbps
*Size: 87MB

Tracklist:
1.Psychagogue 08:32
2.Deliberate Fog 09:12
3.Arrokoth Trireme 13:09
4.Reprisals of Destiny 07:28
******************************
Total playing time: 38:21



Technical info
(IMG:https://metalarea.org/images/spectrogram/2022_Jun/7d494fb5f79d232f9fa7623c505421ce.png)
Input File: 04 - Reprisals of Destiny sample.mp3
Channels : 2
Sample Rate : 44100
Precision : 16-bit
Duration : 00:03:05.30 = 8171554 samples = 13897.2 CDDA sectors
File Size : 7.41M
Bit Rate : 320k
Sample Encoding: MPEG audio (layer I, II or III)
Comments :
Title=Reprisals of Destiny
Artist=Krallice
Album=Psychagogue
Tracknumber=04
Year=2022
Genre=Avant-garde Black Metal



Register


Go to the top of the page
  Insert nick Quick quote
+Quote Post
 
Start new topic
Replies (1 - 8)
post Jun 18 2022, 09:40:21
Post #2

Семь Литров
*******
Group: Металариец
Posts: 716
Releases: 15
From: Brasil - Sao Paulo
On Forums: 2 years 2 months
Thanks: 590 time(s)
Brazil


I can't edit my post so they just deleted, cause they don't know how to edit...
Fucking FLAC -
Register


Go to the top of the page
  Insert nick Quick quote
+Quote Post
post Jun 18 2022, 11:22:21
Post #3

Два Литра
**
Group: Завсегдатай
Posts: 159
Releases: 0
On Forums: 1 year 7 months
Thanks: 85 time(s)
Germany


Все еще не люблю этот хипстерский суп.


Thanks:
(1) Mencae77,
Go to the top of the page
  Insert nick Quick quote
+Quote Post
post Jun 18 2022, 11:24:43
Post #4

Маньяк
**********
Group: Металариец
Posts: 1,124
Releases: 0
On Forums: 8 years 11 months
Thanks: 855 time(s)
Australia


"Avant-garde black metal" (IMG:style_emoticons/default/21.gif)


Thanks:
Go to the top of the page
  Insert nick Quick quote
+Quote Post
post Jun 18 2022, 14:57:16
Post #5

Group: Подсевший
Posts: 16
Releases: 0
From: Canada
On Forums: 1 year 5 months
Thanks: 2 time(s)
Canada


Thanks a lot man !!
Go to the top of the page
  Insert nick Quick quote
+Quote Post
post Jun 19 2022, 19:03:58
Post #6

0%Tolerance
***********
Group: Металариец
Posts: 1,954
Releases: 0
On Forums: 9 years 9 months
Thanks: 413 time(s)
Unknown


Зачастили посаны с выпуском альбомов. Это уже стало сказываться на качестве материала. Предыдущий полнофррмат текущего года тому подтверждение.
Новый альбом послушаю без фанатизма.
Go to the top of the page
  Insert nick Quick quote
+Quote Post
post Jun 20 2022, 01:28:49
Post #7

Четыре Литра
****
Group: Металариец
Posts: 341
Releases: 0
On Forums: 4 years 1 week
Thanks: 154 time(s)
Mexico


Nice. Their second album of the year. Cool US avant-garde black metal (IMG:style_emoticons/default/9.gif) (IMG:style_emoticons/default/9.gif)
Go to the top of the page
  Insert nick Quick quote
+Quote Post
post Jun 22 2022, 20:16:35
Post #8

Маньяк
**********
Group: Металариец
Posts: 1,124
Releases: 0
On Forums: 8 years 11 months
Thanks: 855 time(s)
Australia


No BM in it, even avantgarde.
Go to the top of the page
  Insert nick Quick quote
+Quote Post
post Jun 23 2022, 07:41:01
Post #9

0%Tolerance
***********
Group: Металариец
Posts: 1,954
Releases: 0
On Forums: 9 years 9 months
Thanks: 413 time(s)
Unknown


Здесь дела обстоят немногим получше, чем на предыдущем этого года. Два раза послушать (можно) и выкинуть.
Go to the top of the page
  Insert nick Quick quote
+Quote Post

Reply to this topicStart new topic
2 User(s) are reading this topic (2 Guests and 0 Anonymous Users)
0 Members:

 



- Lo-Fi Version Support form
Copyrights and abuse reports form
Time is now: 6th July 2022 - 17:21:45