Welcome Guest ( Log In | Register )

> Releases Upload / Добавление релизов

Добавить релиз тут / Click here to add release
Рекомендованные обменники / Recommended file shares

> Filthed - Loathsome (2022), Brutal Death Metal
post Jun 18 2022, 14:05:56
Post #1

Правь статус, ####!111
**************
Group: Металариец
Posts: 3,202
Releases: 1714
On Forums: 11 years 8 months
Thanks: 33383 time(s)
Russian Federation


(IMG:https://metalarea.org/images/audiocovers/2022_Jun/acov_tid366219_thumb.jpg)

*Artist: Filthed
*Album: Loathsome
*Year: 2022
*Genre: Brutal Death Metal
*Country: Russian Federation (IMG:https://metalarea.org/forum/style_images/flags/Russian%20Federation.png)
*Format: mp3@CBR320kbps
*Size: 77MB

Tracklist:
1.Loathsome 03:00
2.Incision 03:14
3.The Stench 02:42
4.Hide 02:35
5.I Am The Filth 04:03
6.Contaminated 03:31
7.Drain The Blood 03:51
8.No Way Back 03:35
9.Putrefaction 02:59
10.The Flesh Awaits 03:22
******************************
Total playing time: 32:52



Technical info
(IMG:https://metalarea.org/images/spectrogram/2022_Jun/d2086979e7ee150ce7fd7c01fc0907d1.png)
Input File: 04. Hide.mp3
Channels : 2
Sample Rate : 44100
Precision : 16-bit
Duration : 00:02:35.70 = 6866414 samples = 11677.6 CDDA sectors
File Size : 6.70M
Bit Rate : 344k
Sample Encoding: MPEG audio (layer I, II or III)
Comments :
Title=Hide
Artist=Filthed
Album=Loathsome
Tracknumber=04
Year=2022
Genre=Brutal Death Metal



Register


Go to the top of the page
  Insert nick Quick quote
+Quote Post
 
Start new topic
Replies (1 - 5)
post Jun 19 2022, 10:36:04
Post #2

Мегаманьяк
***********
Group: Металариец
Posts: 1,738
Releases: 1
From: APATIN, SERBIA, АПАТИН, СЕРБИЯ
On Forums: 14 years 9 months
Thanks: 5173 time(s)



Flac

Register


Thanks:
Go to the top of the page
  Insert nick Quick quote
+Quote Post
post Jun 20 2022, 05:23:43
Post #3

Три Литра
***
Group: Завсегдатай
Posts: 274
Releases: 0
On Forums: 12 years 9 months
Thanks: 84 time(s)
Unknown


Какое-же это Г... бруталом даже не пахнет! Пердежно-зашкаленный набор струнного шмурыганья вялыми кривыми пальцами.


Thanks:
(1) apries,
Go to the top of the page
  Insert nick Quick quote
+Quote Post
post Jun 20 2022, 10:03:40
Post #4

Литр
*
Group: Подсевший
Posts: 88
Releases: 0
On Forums: 7 months 1 week
Thanks: 15 time(s)
Russian Federation


жухлый хлеб и чистка рыбы, к сожалению


Thanks:
Go to the top of the page
  Insert nick Quick quote
+Quote Post
post Jun 20 2022, 11:46:09
Post #5

Full-of-Hate
**************
Group: Металариец
Posts: 4,978
Releases: 0
From: Moscow
On Forums: 13 years 1 month
Thanks: 5555 time(s)
Russian Federation


Феноменально фекальный альбом. Возможно, худший жанровый релиз, что я слушал в этом году.
Звук гитар - очко. Бас на записи отсутствует. Барабаны - кастрюли из миди. Вокалист того гляди или навалит в штаны, или получит инсульт.

Обезжиренный брутал. Такой только ставить в веганском кафе или парикмахерской для пуделей.

Лорды опять измазалась. Понятно, что патриотические чуйства и родимый тяжмет, но такое разве что на бандкамп бесплатно заливать.


Thanks:
Go to the top of the page
  Insert nick Quick quote
+Quote Post
post Jun 22 2022, 17:48:31
Post #6

А чо я то?!
******
Group: Металариец
Posts: 525
Releases: 2
From: Уругвай ёпта.
On Forums: 15 years 5 months
Thanks: 127 time(s)
Uruguay


Отвратительно.
Go to the top of the page
  Insert nick Quick quote
+Quote Post

Reply to this topicStart new topic
1 User(s) are reading this topic (1 Guests and 0 Anonymous Users)
0 Members:

 



- Lo-Fi Version Support form
Copyrights and abuse reports form
Time is now: 11th August 2022 - 17:48:14