Welcome Guest ( Log In | Register )

> Releases Upload / Добавление релизов

Добавить релиз тут / Click here to add release
Рекомендованные обменники / Recommended file shares

> Эргот - Великая Жертва [ep] (2022), Heavy/Power Metal
post Jun 18 2022, 17:19:43
Post #1

Правь статус, ####!111
**************
Group: Металариец
Posts: 3,196
Releases: 1709
On Forums: 11 years 8 months
Thanks: 33361 time(s)
Russian Federation


(IMG:https://metalarea.org/images/audiocovers/2022_Jun/acov_tid366235_thumb.jpg)

*Artist: Эргот
*Album: Великая Жертва [ep]
*Year: 2022
*Genre: Heavy/Power Metal
*Country: Russian Federation (IMG:https://metalarea.org/forum/style_images/flags/Russian%20Federation.png)
*Format: mp3@CBR320kbps
*Size: 50MB

Tracklist:
01. Великая Жертва 04:09
02. Первый Страж 04:09
03. Чертоги Ужаса 03:15
04. Великая Жертва (Instrumental) 04:09
05. Первый Страж (Instrumental) 04:09
06. Чертоги Ужаса (Instrumental) 03:15
******************************
Total playing time: 23:06

Preview 1

Technical info
(IMG:https://metalarea.org/images/spectrogram/2022_Jun/868801baae6c8e1601c64cfdec466b63.png)
Input File: 02 Первый Страж.mp3
Channels : 2
Sample Rate : 44100
Precision : 16-bit
Duration : 00:04:09.71 = 11012035 samples = 18728 CDDA sectors
File Size : 9.98M
Bit Rate : 320k
Sample Encoding: MPEG audio (layer I, II or III)
Comments :
Title=Первый Страж
Artist=Эргот
Album=Великая Жертва
Tracknumber=02
Year=2022
Genre=Power Metal



Register


Go to the top of the page
  Insert nick Quick quote
+Quote Post
 
Start new topic
Replies (1 - 1)
post Jun 24 2022, 16:27:04
Post #2

? ? ? ? ? ? ? ?
*******
Group: Металариец
Posts: 772
Releases: 23
On Forums: 15 years 5 months
Thanks: 582 time(s)
Russian Federation


Есть неплохие потуги.
Но с таким качеством записи и отсутствием новых идей им быть только в третьесорте.
Go to the top of the page
  Insert nick Quick quote
+Quote Post

Reply to this topicStart new topic
1 User(s) are reading this topic (1 Guests and 0 Anonymous Users)
0 Members:

 



- Lo-Fi Version Support form
Copyrights and abuse reports form
Time is now: 11th August 2022 - 01:13:17