Welcome Guest ( Log In | Register )

> Örastimar - Näster [ep] (2022), Black Metal
post Jun 20 2022, 13:21:47
Post #1

Правь статус, 616
**************
Group: Металариец
Posts: 7,972
Releases: 6310
From: 55°35’N 38°08’E
On Forums: 14 years 2 months
Thanks: 115360 time(s)
Russian Federation


(IMG:https://metalarea.org/images/audiocovers/2022_Jun/acov_tid366289_thumb.jpg)

*Artist: Örastimar
*Album: Näster [ep]
*Year: 2022
*Genre: Black Metal
*Country: Germany (IMG:https://metalarea.org/forum/style_images/flags/Germany.png)
*Format: mp3@CBR320kbps
*Size: 44MB

Tracklist:
1.I 05:31
2.II 03:53
3.III 03:37
4.IV 05:51
******************************
Total playing time: 18:52



Technical info
(IMG:https://metalarea.org/images/spectrogram/2022_Jun/68f96a0cdc2d30351ba73908c6f24fe9.png)
Input File: 01 I.mp3
Channels : 2
Sample Rate : 44100
Precision : 16-bit
Duration : 00:05:31.10 = 14601378 samples = 24832.3 CDDA sectors
File Size : 13.4M
Bit Rate : 323k
Sample Encoding: MPEG audio (layer I, II or III)
Comments :
Title=I
Artist=Örastimar
Album=Näster
Tracknumber=1
Year=2022
Genre=Black Metal



Register


Go to the top of the page
  Insert nick Quick quote
+Quote Post
 
Start new topic
Replies (1 - 1)
post Jun 23 2022, 12:42:10
Post #2

0%Tolerance
**************
Group: Металариец
Posts: 2,100
Releases: 0
On Forums: 10 years 2 weeks
Thanks: 435 time(s)
Unknown


Ни рыба, ни мясо.
Go to the top of the page
  Insert nick Quick quote
+Quote Post

Reply to this topicStart new topic
1 User(s) are reading this topic (1 Guests and 0 Anonymous Users)
0 Members:

 



- Lo-Fi Version Support form
Copyrights and abuse reports form
Time is now: 3rd October 2022 - 03:48:03