Welcome Guest ( Log In | Register )

> Releases Upload / Добавление релизов

Добавить релиз тут / Click here to add release
Рекомендованные обменники / Recommended file shares

> Heavydeath - The Newborn [ep] (2021), Doom/Death Metal (D6)
post Jun 21 2022, 16:24:46
Post #1

...
**************
Group: Металариец
Posts: 3,607
Releases: 1522
From: МЕЩЁРА
On Forums: 14 years 4 months
Thanks: 44563 time(s)
Russian Federation


(IMG:https://metalarea.org/images/audiocovers/2022_Jun/acov_tid366315_thumb.jpg)

*Artist: Heavydeath
*Album: The Newborn [ep]
*Year: 2021
*Genre: Doom/Death Metal
*Country: Sweden (IMG:https://metalarea.org/forum/style_images/flags/Sweden.png)
*Format: mp3@CBR320kbps
*Size: 89MB

Tracklist:
1. The Newborn 17:08
2. Tidal Clarity 10:04
3. Shadow Of The Equinox 05:56
4. Dawn Without Sun 05:48
******************************
Total playing time: 38:56



Extended info
Released on CD with 3 bonus tracks in 2021 by Ablaze Productions.

Track 1:
Guitars and vocals recorded at Abysmal Noise Studio II, March 2019.
Bass recorded at Raven Noise Studio, March 2019.
Drums recorded at Sonic Train Studios, March 2019.
Additional recordings at Abysmal Noise Studio I, June 2019.
Mixed and mastered at Raven Noise Studio, June 2019.

Tracks 2-3:
Recorded during pre-production demo session 2017.
Mixed and mastered in 2017.

Track 4:
Recorded during pre-production demo session 2016.


Technical info
(IMG:https://metalarea.org/images/spectrogram/2022_Jun/1a42d656693721e564afb34e6fd5477a.png)
Input File: 1. The Newborn.mp3
Channels : 2
Sample Rate : 44100
Precision : 16-bit
Duration : 00:17:08.14 = 45340754 samples = 77110.1 CDDA sectors
File Size : 41.2M
Bit Rate : 320k
Sample Encoding: MPEG audio (layer I, II or III)
Comments :
Title=The Newborn
Artist=Heavydeath
Album=The Newborn
Tracknumber=1
Year=2021
Genre=Doom/Death Metal



Register


Go to the top of the page
  Insert nick Quick quote
+Quote Post
 
Start new topic
Replies (1 - 1)
post Jun 22 2022, 22:12:02
Post #2

Пять Литров
*****
Group: Металариец
Posts: 486
Releases: 0
On Forums: 4 years 6 months
Thanks: 167 time(s)
Belarus


Намешали лишнего и превратили предположительно привлекательный материал в кучу фекалий.
Go to the top of the page
  Insert nick Quick quote
+Quote Post

Reply to this topicStart new topic
1 User(s) are reading this topic (1 Guests and 0 Anonymous Users)
0 Members:

 



- Lo-Fi Version Support form
Copyrights and abuse reports form
Time is now: 11th August 2022 - 00:49:55