Welcome Guest ( Log In | Register )

> Releases Upload / Добавление релизов

Добавить релиз тут / Click here to add release
Рекомендованные обменники / Recommended file shares

> Aethyrick - Pilgrimage (2022), Atmospheric Black Metal (D5)
post Jun 21 2022, 17:55:27
Post #1

Правь статус, ####!111
**************
Group: Металариец
Posts: 29,934
Releases: 22028
From: Г.Харьков
On Forums: 10 years 3 months
Thanks: 458244 time(s)
Unknown


(IMG:https://metalarea.org/images/audiocovers/2022_Jun/acov_tid366316_thumb.jpg)

*Artist: Aethyrick
*Album: Pilgrimage
*Year: 2022
*Genre: Atmospheric Black Metal
*Country: Finland (IMG:https://metalarea.org/forum/style_images/flags/Finland.png)
*Format: mp3@CBR320kbps
*Size: 96MB

Tracklist:
1. The Turning Away 04:03
2. In the Chapel of One Spirit 06:48
3. Threefold Resurrection 05:43
4. Winds of the Wanderer 06:46
5. A Brother to the Stars 05:52
6. Hallowed Bloodline 05:24
7. The Moon and Her Consort 02:28
8. Kingdom 05:42
******************************
Total playing time: 42:46



Extended info
Scene CD-Rip
Gall Unknown
Exile Unknown


Technical info
(IMG:https://metalarea.org/images/spectrogram/2022_Jun/7ccf74d35a8e77910fb9e5e04a64731c.png)
Input File: 04 - Winds of the Wanderer.mp3
Channels : 2
Sample Rate : 44100
Precision : 16-bit
Duration : 00:06:26.19 = 17030935 samples = 28964.2 CDDA sectors
File Size : 15.4M
Bit Rate : 320k
Sample Encoding: MPEG audio (layer I, II or III)
Comments :
Title=Winds of the Wanderer
Artist=Aethyrick
Album=Pilgrimage
Tracknumber=4
Year=2022



Register


Go to the top of the page
  Insert nick Quick quote
+Quote Post
 
Start new topic
Replies (1 - 1)
post Jun 22 2022, 16:46:47
Post #2

Правь статус, ####!111
**************
Group: Металариец
Posts: 29,934
Releases: 22028
From: Г.Харьков
On Forums: 10 years 3 months
Thanks: 458244 time(s)
Unknown


FLAC CD (Scene) 287 mb
Register


Go to the top of the page
  Insert nick Quick quote
+Quote Post

Reply to this topicStart new topic
1 User(s) are reading this topic (1 Guests and 0 Anonymous Users)
0 Members:

 



- Lo-Fi Version Support form
Copyrights and abuse reports form
Time is now: 11th August 2022 - 19:29:19