Welcome Guest ( Log In | Register )

> Hellcharger - Insulters [ep] (2020), Black/Speed Metal/Punk
post Jun 21 2022, 22:27:46
Post #1

Правь статус, 616
**************
Group: Металариец
Posts: 7,972
Releases: 6310
From: 55°35’N 38°08’E
On Forums: 14 years 2 months
Thanks: 115360 time(s)
Russian Federation


(IMG:https://metalarea.org/images/audiocovers/2022_Jun/acov_tid366320_thumb.jpg)

*Artist: Hellcharger
*Album: Insulters [ep]
*Year: 2020
*Genre: Black/Speed Metal/Punk
*Country: Mexico (IMG:https://metalarea.org/forum/style_images/flags/Mexico.png)
*Format: mp3@CBR320kbps
*Size: 32MB

Tracklist:
1.Coven's Rock'n'Roll 02:52
2.Rock'n'Roll & Gasoline 02:30
3.Alcohol, Sex, Blasphemy 01:40
4.Evoke 03:02
5.Hell 03:28
******************************
Total playing time: 13:32





Technical info
(IMG:https://metalarea.org/images/spectrogram/2022_Jun/454f7fa1faa30e5c2a42c97854f7bc8e.png)
Input File: 01 Coven\'s Rock\'n\'Roll.mp3
Channels : 2
Sample Rate : 44100
Precision : 16-bit
Duration : 00:02:52.39 = 7602575 samples = 12929.5 CDDA sectors
File Size : 7.06M
Bit Rate : 328k
Sample Encoding: MPEG audio (layer I, II or III)
Comments :
Title=Coven's Rock'n'Roll
Artist=Hellcharger
Album=Insulters
Tracknumber=1
Year=2020
Genre=MetalPunk



Register


Go to the top of the page
  Insert nick Quick quote
+Quote Post
 
Start new topic
Replies (1 - 1)
post Jun 23 2022, 13:41:09
Post #2

0%Tolerance
**************
Group: Металариец
Posts: 2,100
Releases: 0
On Forums: 10 years 2 weeks
Thanks: 435 time(s)
Unknown


Мексикосы из подвала накидали рог ен ролл под старую школу. Последняя телега АДъ а-ля Venom - самая угарная.
Go to the top of the page
  Insert nick Quick quote
+Quote Post

Reply to this topicStart new topic
1 User(s) are reading this topic (1 Guests and 0 Anonymous Users)
0 Members:

 



- Lo-Fi Version Support form
Copyrights and abuse reports form
Time is now: 3rd October 2022 - 03:01:42