Welcome Guest ( Log In | Register )

> Releases Upload / Добавление релизов

Добавить релиз тут / Click here to add release
Рекомендованные обменники / Recommended file shares

 
Reply to this topicStart new topic
> Rënz - You're Gonna Get Shot [ep] (2022), Speed/Heavy Metal/Punk
post Jun 21 2022, 22:52:03
Post #1

Правь статус, 616
**************
Group: Металариец
Posts: 7,503
Releases: 5892
From: 55°35’N 38°08’E
On Forums: 13 years 11 months
Thanks: 109066 time(s)
Russian Federation


(IMG:https://metalarea.org/images/audiocovers/2022_Jun/acov_tid366321_thumb.jpg)

*Artist: Rënz
*Album: You're Gonna Get Shot [ep]
*Year: 2022
*Genre: Speed/Heavy Metal/Punk
*Country: Mexico (IMG:https://metalarea.org/forum/style_images/flags/Mexico.png)
*Format: mp3@CBR320kbps
*Size: 54MB

Tracklist:
1.Bastards from Hell 02:31
2.You're Gonna Get Shot 03:38
3.I Hate People 02:16
4.Idiocracy 03:20
5.Lobotomy 02:52
6.Point-Blank 02:52
7.Vendetta 03:00
8.Black Sun 02:24
******************************
Total playing time: 22:53



(IMG:https://metalarea.org/images/youtube.png)

Technical info
(IMG:https://metalarea.org/images/spectrogram/2022_Jun/4c47f30d1967c60849ff674987b3427b.png)
Input File: 01 Bastards from Hell.mp3
Channels : 2
Sample Rate : 44100
Precision : 16-bit
Duration : 00:02:31.60 = 6685560 samples = 11370 CDDA sectors
File Size : 6.24M
Bit Rate : 329k
Sample Encoding: MPEG audio (layer I, II or III)
Comments :
Title=Bastards from Hell
Artist=Rënz
Album=You're Gonna Get Shot
Tracknumber=1
Year=2022
Genre=Speed Metal



Register


Go to the top of the page
  Insert nick Quick quote
+Quote Post

Reply to this topicStart new topic
1 User(s) are reading this topic (1 Guests and 0 Anonymous Users)
0 Members:

 



- Lo-Fi Version Support form
Copyrights and abuse reports form
Time is now: 6th July 2022 - 16:54:39