Welcome Guest ( Log In | Register )

> Releases Upload / Добавление релизов

Добавить релиз тут / Click here to add release
Рекомендованные обменники / Recommended file shares

 
Reply to this topicStart new topic
> Maligno - Camino Entre Sombras [ep] (2017), Black Metal (D8)
post Jun 21 2022, 23:14:27
Post #1

Правь статус, 616
**************
Group: Металариец
Posts: 7,503
Releases: 5892
From: 55°35’N 38°08’E
On Forums: 13 years 11 months
Thanks: 109066 time(s)
Russian Federation


(IMG:https://metalarea.org/images/audiocovers/2022_Jun/acov_tid366322_thumb.jpg)

*Artist: Maligno
*Album: Camino Entre Sombras [ep]
*Year: 2017
*Genre: Black Metal
*Country: Colombia (IMG:https://metalarea.org/forum/style_images/flags/Colombia.png)
*Format: mp3@CBR320kbps
*Size: 50MB

Tracklist:
1.Preludio 01:13
2.Lucifer 05:26
3.Plegarias 05:42
4.Recuerda 04:10
5.Camino Entre Sombras 04:48
******************************
Total playing time: 21:19



(IMG:https://metalarea.org/images/youtube.png)

Technical info
(IMG:https://metalarea.org/images/spectrogram/2022_Jun/161804e4e7ba5b7b3cac0bfd4082ed8c.png)
Input File: 02 Lucifer.mp3
Channels : 2
Sample Rate : 44100
Precision : 16-bit
Duration : 00:05:26.13 = 14382465 samples = 24460 CDDA sectors
File Size : 13.2M
Bit Rate : 325k
Sample Encoding: MPEG audio (layer I, II or III)
Comments :
Title=Lucifer
Artist=MALIGNO
Album=Camino Entre Sombras
Tracknumber=2
Year=2017
Genre=Black Metal



Register


Go to the top of the page
  Insert nick Quick quote
+Quote Post

Reply to this topicStart new topic
1 User(s) are reading this topic (1 Guests and 0 Anonymous Users)
0 Members:

 



- Lo-Fi Version Support form
Copyrights and abuse reports form
Time is now: 6th July 2022 - 17:03:33