Welcome Guest ( Log In | Register )

> Releases Upload / Добавление релизов

Добавить релиз тут / Click here to add release
Рекомендованные обменники / Recommended file shares

> Blasted Pancreas - Pathogenic Organisms In Blood (2022), Brutal Death Metal/Goregrind (D)
post Jun 22 2022, 04:10:47
Post #1

Правь статус, ####!111
**************
Group: Металариец
Posts: 2,980
Releases: 1518
On Forums: 11 years 7 months
Thanks: 29826 time(s)
Russian Federation


(IMG:https://metalarea.org/images/audiocovers/2022_Jun/acov_tid366323_thumb.jpg)

*Artist: Blasted Pancreas
*Album: Pathogenic Organisms In Blood
*Year: 2022
*Genre: Brutal Death Metal/Goregrind
*Country: Greece (IMG:https://metalarea.org/forum/style_images/flags/Greece.png)
*Format: mp3@CBR320kbps
*Size: 67MB

Tracklist:
1.Desomorphine 01:10
2.Yersinia Pestis Plague 00:37
3.Brucellosis 01:09
4.Carbapenem-Resistant Infection 02:04
5.Chikungunya Virus 00:35
6.Varicella Zoster 01:27
7.Ulceroglandular Tularemia 02:18
8.Hantavirus Pulmonary Syndrome 01:30
9.Lymphadenopathy 03:13
10.Emesis Of Blood 01:56
11.Klebs-Löffler Bacillus 01:07
12.Legionella Pneumophila 01:08
13.Vibrio Vulnificus 02:30
14.Powassan Disease 00:48
15.Anaplasmosis 02:39
16.Transmissible Spongiform Encephalopathy 01:13
17.Shigella Sonnei 04:08
******************************
Total playing time: 29:32



Technical info
(IMG:https://metalarea.org/images/spectrogram/2022_Jun/66c5eda85ace5a928f7b46bce6624e85.png)
Input File: 08. Hantavirus Pulmonary Syndrome.mp3
Channels : 2
Sample Rate : 44100
Precision : 16-bit
Duration : 00:01:30.73 = 4001105 samples = 6804.6 CDDA sectors
File Size : 4.00M
Bit Rate : 353k
Sample Encoding: MPEG audio (layer I, II or III)
Comments :
Title=Hantavirus Pulmonary Syndrome
Artist=Blasted Pancreas
Album=Pathogenic Organisms in Blood
Tracknumber=08
Year=2022
Genre=Brutal Death Metal/Goregrind



Register


Go to the top of the page
  Insert nick Quick quote
+Quote Post
 
Start new topic
Replies (1 - 1)
post Jun 24 2022, 11:52:57
Post #2

Мегаманьяк
***********
Group: Металариец
Posts: 1,711
Releases: 1
From: APATIN, SERBIA, АПАТИН, СЕРБИЯ
On Forums: 14 years 8 months
Thanks: 5022 time(s)



Flac

Register


Thanks:
Go to the top of the page
  Insert nick Quick quote
+Quote Post

Reply to this topicStart new topic
1 User(s) are reading this topic (1 Guests and 0 Anonymous Users)
0 Members:

 



- Lo-Fi Version Support form
Copyrights and abuse reports form
Time is now: 6th July 2022 - 17:18:32