Welcome Guest ( Log In | Register )

> Releases Upload / Добавление релизов

Добавить релиз тут / Click here to add release
Рекомендованные обменники / Recommended file shares

> Vril - Nephilim [ep] (2022), Technical Death Metal (D5)
post Jun 22 2022, 04:22:33
Post #1

Правь статус, ####!111
**************
Group: Металариец
Posts: 2,980
Releases: 1518
On Forums: 11 years 7 months
Thanks: 29827 time(s)
Russian Federation


(IMG:https://metalarea.org/images/audiocovers/2022_Jun/acov_tid366324_thumb.jpg)

*Artist: Vril
*Album: Nephilim [ep]
*Year: 2022
*Genre: Technical Death Metal
*Country: Ecuador (IMG:https://metalarea.org/forum/style_images/flags/Ecuador.png)
*Format: mp3@CBR320kbps
*Size: 42MB

Tracklist:
1.Nephilim 04:01
2.Cyclops 04:27
3.Death Tribute (Spirit Crusher/ The Flesh and the Power it Holds / Symbolic) 04:39
4.Jôtuns 04:07
******************************
Total playing time: 17:14



Technical info
(IMG:https://metalarea.org/images/spectrogram/2022_Jun/760aab94a241cabbce0156ca373fd4c5.png)
Input File: 01 - Nephilim.mp3
Channels : 2
Sample Rate : 44100
Precision : 16-bit
Duration : 00:04:01.07 = 10631363 samples = 18080.5 CDDA sectors
File Size : 9.71M
Bit Rate : 322k
Sample Encoding: MPEG audio (layer I, II or III)
Comments :
Title=Nephilim
Artist=Vril
Album=Nephilim
Tracknumber=01
Year=2022
Genre=Melodic/ Technical Death Metal



Register


Go to the top of the page
  Insert nick Quick quote
+Quote Post
 
Start new topic
Replies (1 - 1)
post Jun 24 2022, 11:51:35
Post #2

Мегаманьяк
***********
Group: Металариец
Posts: 1,711
Releases: 1
From: APATIN, SERBIA, АПАТИН, СЕРБИЯ
On Forums: 14 years 8 months
Thanks: 5022 time(s)



Flac

Register


Thanks:
Go to the top of the page
  Insert nick Quick quote
+Quote Post

Reply to this topicStart new topic
1 User(s) are reading this topic (1 Guests and 0 Anonymous Users)
0 Members:

 



- Lo-Fi Version Support form
Copyrights and abuse reports form
Time is now: 6th July 2022 - 17:29:48