Welcome Guest ( Log In | Register )

> Releases Upload / Добавление релизов

Добавить релиз тут / Click here to add release
Рекомендованные обменники / Recommended file shares

 
Reply to this topicStart new topic
> Nullification - The Iron Crusade [ep] (2022), Old School Death Metal
post Jun 22 2022, 04:40:01
Post #1

Правь статус, ####!111
**************
Group: Металариец
Posts: 2,980
Releases: 1518
On Forums: 11 years 7 months
Thanks: 29828 time(s)
Russian Federation


(IMG:https://metalarea.org/images/audiocovers/2022_Jun/acov_tid366325_thumb.jpg)

*Artist: Nullification
*Album: The Iron Crusade [ep]
*Year: 2022
*Genre: Old School Death Metal
*Country: Philippines (IMG:https://metalarea.org/forum/style_images/flags/Philippines.png)
*Format: mp3@CBR320kbps
*Size: 26MB

Tracklist:
1.Born Ageless 05:24
2.The Father of Machines 05:55
******************************
Total playing time: 11:19



Technical info
(IMG:https://metalarea.org/images/spectrogram/2022_Jun/f666d71c215ed0b9725426efed153ccd.png)
Input File: 01 - Born Ageless.mp3
Channels : 2
Sample Rate : 44100
Precision : 16-bit
Duration : 00:05:24.46 = 14308730 samples = 24334.6 CDDA sectors
File Size : 13.1M
Bit Rate : 323k
Sample Encoding: MPEG audio (layer I, II or III)
Comments :
Title=Born Ageless
Artist=Nullification
Album=The Iron Crusade
Tracknumber=01
Year=2022
Genre=Old-School Death Metal



Register


Go to the top of the page
  Insert nick Quick quote
+Quote Post

Reply to this topicStart new topic
1 User(s) are reading this topic (1 Guests and 0 Anonymous Users)
0 Members:

 



- Lo-Fi Version Support form
Copyrights and abuse reports form
Time is now: 6th July 2022 - 17:43:42