Welcome Guest ( Log In | Register )

> Releases Upload / Добавление релизов

Добавить релиз тут / Click here to add release
Рекомендованные обменники / Recommended file shares

> Sasqwytch - Urth II (2022), Death/Doom Metal
post Jun 22 2022, 08:45:24
Post #1

Правь статус, ####!111
**************
Group: Металариец
Posts: 2,980
Releases: 1518
On Forums: 11 years 7 months
Thanks: 29828 time(s)
Russian Federation


(IMG:https://metalarea.org/images/audiocovers/2022_Jun/acov_tid366327_thumb.jpg)

*Artist: Sasqwytch
*Album: Urth II
*Year: 2022
*Genre: Death/Doom Metal
*Country: United States (IMG:https://metalarea.org/forum/style_images/flags/United%20States.png)
*Format: mp3@CBR320kbps
*Size: 86MB

Tracklist:
1.Urth II 02:17
2.Bistahieversor 03:30
3.The Serpentine Whip 04:15
4.Grafted in Sinful Design 04:50
5.Lizardeater 03:04
6.Divining Through Patterns in Chyme 04:29
7.River of Giants 03:41
8.Fanged God 03:41
9.Ziggurat of the New Arctic 03:55
10.Blood Basalt 03:33
******************************
Total playing time: 37:15



Technical info
(IMG:https://metalarea.org/images/spectrogram/2022_Jun/9ee00cb48ff14a5ddaf57afa1dc6ea8b.png)
Input File: 05. Lizardeater.mp3
Channels : 2
Sample Rate : 44100
Precision : 16-bit
Duration : 00:03:05.14 = 8164498 samples = 13885.2 CDDA sectors
File Size : 7.41M
Bit Rate : 320k
Sample Encoding: MPEG audio (layer I, II or III)
Comments :
Title=Lizardeater
Artist=Sasqwytch
Album=Urth II
Tracknumber=05
Year=2022
Genre=Death/Black Metal



Register


Go to the top of the page
  Insert nick Quick quote
+Quote Post
 
Start new topic
Replies (1 - 2)
post Jun 22 2022, 22:10:38
Post #2

Пять Литров
*****
Group: Металариец
Posts: 475
Releases: 0
On Forums: 4 years 5 months
Thanks: 164 time(s)
Belarus


Можно даже не слушать. Это точно привет из девяностых с убогой обложкой.
Go to the top of the page
  Insert nick Quick quote
+Quote Post
post Jun 23 2022, 07:58:13
Post #3

Литр
*
Group: Подсевший
Posts: 81
Releases: 0
On Forums: 12 years 5 months
Thanks: 13 time(s)
Ukraine


Да… это дезняк из девяностых,простой без забобонов и всякой там современной хренью, но дума я тут не заметил
Go to the top of the page
  Insert nick Quick quote
+Quote Post

Reply to this topicStart new topic
2 User(s) are reading this topic (2 Guests and 0 Anonymous Users)
0 Members:

 



- Lo-Fi Version Support form
Copyrights and abuse reports form
Time is now: 6th July 2022 - 18:07:34