Welcome Guest ( Log In | Register )

> Releases Upload / Добавление релизов

Добавить релиз тут / Click here to add release
Рекомендованные обменники / Recommended file shares

 
Reply to this topicStart new topic
> Alien Militant - Stupid Idiot Alien Race [demo] (2010), Electronic/Grindcore/Black Metal
post Jun 22 2022, 09:29:36
Post #1

Маньяк
**********
Group: Металариец
Posts: 1,498
Releases: 288
On Forums: 3 years 5 months
Thanks: 4328 time(s)
Canada


(IMG:https://metalarea.org/images/audiocovers/2022_Jun/acov_tid366328_thumb.jpg)

*Artist: Alien Militant
*Album: Stupid Idiot Alien Race [demo]
*Year: 2010
*Genre: Electronic/Grindcore/Black Metal
*Country: Italy (IMG:https://metalarea.org/forum/style_images/flags/Italy.png)
*Format: mp3@CBR320kbps
*Size: 63MB

Tracklist:
1. Alien Legion 4BZ 01:35
2. Nazi Soldiers From Red Planet 02:12
3. Dead Planets And Lost Travellers 00:23
4. Alien Bullshit 00:06
5. Mysterious Cyrcles 01:37
6. Dangerous Lifeforms 02:25
7. Message From Distant Dimensions 01:05
8. Universe Collapse 02:22
9. Neon Mushrooms To Eat Nature 01:41
10. Into Deep Dark Holes 03:09
11. Laser Destroyer 01:09
12. No Oxigen 04:15
13. Steel Ships To Conquer Dimensions 01:47
14. UFO Always Land In USA 00:30
15. Space Blitzkrieg 00:36
16. Steal The Brain, Enslave Humans 01:40
******************************
Total playing time: 26:32

Extended info
NOTE:
my dubbed tape has sound issues starting on this track#9, where the sound almost completely disappears in the right channel with tape hiss.

tape rip by canadaspaceman

I guess for fans of Malhavoc, Impaled Nazarene, Gonkulator, Godflesh, early Soulstorm, Ministry, Satan's God.

https://www.discogs.com/release/5287096-Alien-Militant-Stupid-Idiot-Alien-Race

Cassette, Limited 30 copies
CDR, Limited 30 copies


Technical info
(IMG:https://metalarea.org/images/spectrogram/2022_Jun/e86d5123ce07f02be60043817dad68c0.png)
Input File: A6 Dangerous Lifeforms.mp3
Channels : 2
Sample Rate : 44100
Precision : 16-bit
Duration : 00:02:25.36 = 6410200 samples = 10901.7 CDDA sectors
File Size : 5.92M
Bit Rate : 326k
Sample Encoding: MPEG audio (layer I, II or III)
Comments :
Artist=Alien Militant (Italy)
Album=Stupid Idiot Alien Race demo Tape
Year=2010
Genre=Electronic, Grindcore, Black Metal, Noise, Experimental



Register


Go to the top of the page
  Insert nick Quick quote
+Quote Post

Reply to this topicStart new topic
1 User(s) are reading this topic (1 Guests and 0 Anonymous Users)
0 Members:

 



- Lo-Fi Version Support form
Copyrights and abuse reports form
Time is now: 6th July 2022 - 18:20:07