Welcome Guest ( Log In | Register )

> Releases Upload / Добавление релизов

Добавить релиз тут / Click here to add release
Рекомендованные обменники / Recommended file shares

 
Reply to this topicStart new topic
> Aube Noire - Les Anges De L'apocalypse (2022), Heavy Metal
post Jun 22 2022, 10:53:28
Post #1

Правь статус, ####!111
**************
Group: Металариец
Posts: 29,681
Releases: 21833
From: Г.Харьков
On Forums: 10 years 1 month
Thanks: 452732 time(s)
Unknown


(IMG:https://metalarea.org/images/audiocovers/2022_Jun/acov_tid366329_thumb.jpg)

*Artist: Aube Noire
*Album: Les Anges De L'apocalypse
*Year: 2022
*Genre: Heavy Metal
*Country: Canada (IMG:https://metalarea.org/forum/style_images/flags/Canada.png)
*Format: mp3@CBR320kbps
*Size: 125MB

Tracklist:
1. Armageddon
2. Catacombe
3. Les anges de l'apocalypse
4. Noir ou rouge
5. Moins que rien
6. Anéantissement
7. Maître des cauchemars
8. Total désastre
9. Violence Inc
10. Rédemption
******************************
Total playing time: 54:50



Extended info



Technical info
(IMG:https://metalarea.org/images/spectrogram/2022_Jun/b8e675b5ef79b8cf3362976e9fc42be5.png)
Input File: 07 - Maître des cauchemars.mp3
Channels : 2
Sample Rate : 44100
Precision : 16-bit
Duration : 00:07:26.23 = 19678523 samples = 33466.9 CDDA sectors
File Size : 17.9M
Bit Rate : 320k
Sample Encoding: MPEG audio (layer I, II or III)
Comments :
Title=Maître des cauchemars
Artist=Aube Noire
Album=Les anges de l'apocalypse
Tracknumber=7
Year=2022



Register


Go to the top of the page
  Insert nick Quick quote
+Quote Post

Reply to this topicStart new topic
1 User(s) are reading this topic (1 Guests and 0 Anonymous Users)
0 Members:

 



- Lo-Fi Version Support form
Copyrights and abuse reports form
Time is now: 6th July 2022 - 16:27:39