Welcome Guest ( Log In | Register )

> Releases Upload / Добавление релизов

Добавить релиз тут / Click here to add release
Рекомендованные обменники / Recommended file shares

 
Reply to this topicStart new topic
> Atlantic - Torrents [demo] (2022), Atmospheric Black Metal
post Jun 22 2022, 10:56:47
Post #1

Семь Литров
*******
Group: Металариец
Posts: 716
Releases: 15
From: Brasil - Sao Paulo
On Forums: 2 years 2 months
Thanks: 590 time(s)
Brazil


(IMG:https://metalarea.org/images/audiocovers/2022_Jun/acov_tid366330_thumb.jpg)

*Artist: Atlantic
*Album: Torrents [demo]
*Year: 2022
*Genre: Atmospheric Black Metal
*Country: Ireland (IMG:https://metalarea.org/forum/style_images/flags/Ireland.png)
*Format: mp3@CBR320kbps
*Size: 99MB

Tracklist:
1. Torrents 09:03
2. With the Waves 07:18
3. Who We Are 07:32
4. Still, Yet Turbulent 08:50
5. Atlantic 07:00
******************************
Total playing time: 39:43

Technical info
(IMG:https://metalarea.org/images/spectrogram/2022_Jun/4eeb505093539de09edc27223b155c62.png)
Input File: Atlantic - Torrents (demo) by Mencae77.7z
Channels : 2
Sample Rate : 44100
Precision : 16-bit
Duration : 00:02:22.91 = 6302155 samples = 10718 CDDA sectors
File Size : 105M
Bit Rate : 5.86M
Sample Encoding: MPEG audio (layer I, II or III)



Register


Go to the top of the page
  Insert nick Quick quote
+Quote Post

Reply to this topicStart new topic
1 User(s) are reading this topic (1 Guests and 0 Anonymous Users)
0 Members:

 



- Lo-Fi Version Support form
Copyrights and abuse reports form
Time is now: 6th July 2022 - 17:49:14