Welcome Guest ( Log In | Register )

> Releases Upload / Добавление релизов

Добавить релиз тут / Click here to add release
Рекомендованные обменники / Recommended file shares

> Cadaver Carnivore - Dark God [ep] (2022), Atmospheric Death Metal
post Jun 22 2022, 11:57:05
Post #1

Правь статус, ####!111
**************
Group: Металариец
Posts: 3,196
Releases: 1709
On Forums: 11 years 8 months
Thanks: 33361 time(s)
Russian Federation


(IMG:https://metalarea.org/images/audiocovers/2022_Jun/acov_tid366333_thumb.jpg)

*Artist: Cadaver Carnivore
*Album: Dark God [ep]
*Year: 2022
*Genre: Atmospheric Death Metal
*Country: Russian Federation (IMG:https://metalarea.org/forum/style_images/flags/Russian%20Federation.png)
*Format: mp3@CBR320kbps
*Size: 19MB

Tracklist:
1.Dark God 04:34
2.Dai Dark 03:40
******************************
Total playing time: 8:14



Technical info
(IMG:https://metalarea.org/images/spectrogram/2022_Jun/3c4d91b6e654759e67aa5de0e13b143e.png)
Input File: 01. Dark God.mp3
Channels : 2
Sample Rate : 44100
Precision : 16-bit
Duration : 00:04:33.57 = 12064525 samples = 20517.9 CDDA sectors
File Size : 10.9M
Bit Rate : 320k
Sample Encoding: MPEG audio (layer I, II or III)
Comments :
Title=Dark God
Artist=Cadaver Carnivore
Album=Dark God
Tracknumber=01
Year=2022
Genre=Atmospheric Death Metal



Register


Go to the top of the page
  Insert nick Quick quote
+Quote Post
 
Start new topic
Replies (1 - 1)
post Jun 23 2022, 07:40:53
Post #2

Девять Литров
*********
Group: Металариец
Posts: 949
Releases: 48
From: Ивантеевка, Московская область
On Forums: 14 years 7 months
Thanks: 1051 time(s)
Russian Federation


Без откровений. Но материал весьма качественный. С хорошим звуком и убедительным вокалом. Спасибо.
Go to the top of the page
  Insert nick Quick quote
+Quote Post

Reply to this topicStart new topic
1 User(s) are reading this topic (1 Guests and 0 Anonymous Users)
0 Members:

 



- Lo-Fi Version Support form
Copyrights and abuse reports form
Time is now: 11th August 2022 - 01:27:24