Welcome Guest ( Log In | Register )

> Releases Upload / Добавление релизов

Добавить релиз тут / Click here to add release
Рекомендованные обменники / Recommended file shares

> Scumslaught - Knives And Amphetamines [ep] (2022), Thrash Metal
post Jun 22 2022, 12:50:37
Post #1

Правь статус, ####!111
**************
Group: Металариец
Posts: 29,681
Releases: 21833
From: Г.Харьков
On Forums: 10 years 1 month
Thanks: 452733 time(s)
Unknown


(IMG:https://metalarea.org/images/audiocovers/2022_Jun/acov_tid366335_thumb.jpg)

*Artist: Scumslaught
*Album: Knives And Amphetamines [ep]
*Year: 2022
*Genre: Thrash Metal
*Country: France (IMG:https://metalarea.org/forum/style_images/flags/France.png)
*Format: mp3@CBR320kbps
*Size: 52MB

Tracklist:
1. Knives and Amphetamines 02:41
2. Degenerate Fiends 01:44
3. Die You Subhuman Cunt 01:51
4. Baptized in Piss 02:33
5. Dirty Whore 666 02:33
6. Aching Jaw 02:31
7. Emesis Bile 02:20
8. Born in a Sewer 01:01
9. Unholy Feast for Flies 05:00
******************************
Total playing time: 22:14




Extended info
Jon Whiplash Bass (2020-present)
See also: Sépulcre, ex-Skelethal, ex-Infinite Translation
Léo Brard Drums (2020-present)
See also: Repugnizer, ex-Cadaveric Fumes, Scumslaught
Kev Desecrator Guitars, Vocals (2020-present)
See also: Deströyer 666, Sépulcre, Venefixion, Goat Torment (live), Hexecutor (live), ex-Abnorm, ex-Deathless Bastards, ex-Legion Mortifere, ex-Perversifier, ex-Sudden Death, ex-Demonic Oath, ex-Necrowretch, ex-Whipstriker (live), ex-Assaulter (live), ex-Under the Abyss, ex-Trench Hell (live)


Technical info
(IMG:https://metalarea.org/images/spectrogram/2022_Jun/66f3f62625f240dcb9a4b0a21a7e5af4.png)
Input File: 09 - Unholy Feast for Flies.mp3
Channels : 2
Sample Rate : 44100
Precision : 16-bit
Duration : 00:04:59.00 = 13185900 samples = 22425 CDDA sectors
File Size : 12.2M
Bit Rate : 327k
Sample Encoding: MPEG audio (layer I, II or III)
Comments :
Title=Unholy Feast for Flies
Artist=Scumslaught
Album=Knives and Amphetamines
Tracknumber=9
Year=2022-06-23
Genre=Metal
Discnumber=1



Register


Go to the top of the page
  Insert nick Quick quote
+Quote Post
 
Start new topic
Replies (1 - 3)
post Jun 22 2022, 16:46:25
Post #2

Литр
*
Group: Подсевший
Posts: 73
Releases: 0
On Forums: 3 months 3 weeks
Thanks: 42 time(s)
Russian Federation


Злобненько, живенько. Явно по хардкору чуваки угорают.
Даже не знаю, с кем сравнить. Даже что-то от Celtic Frost есть - конвульсии характерные.
Go to the top of the page
  Insert nick Quick quote
+Quote Post
post Jun 22 2022, 23:45:05
Post #3
BAN
RO till
Jul 8 2022, 17:25:26



Кашеобразное зашкаленное звучание. Трэш тут присутствует в количестве около нуля.


Thanks:
(1) AHBAnep,
Go to the top of the page
  Insert nick Quick quote
+Quote Post
post Jun 23 2022, 17:55:04
Post #4

Два Литра
**
Group: Завсегдатай
Posts: 182
Releases: 3
From: Украина
On Forums: 3 years 11 months
Thanks: 79 time(s)
Ukraine


ЦИТАТА(vpetrov @ Jun 22 2022, 18:46:25) *
Даже не знаю, с кем сравнить.

И не надо...
Go to the top of the page
  Insert nick Quick quote
+Quote Post

Reply to this topicStart new topic
1 User(s) are reading this topic (1 Guests and 0 Anonymous Users)
0 Members:

 



- Lo-Fi Version Support form
Copyrights and abuse reports form
Time is now: 6th July 2022 - 16:49:08