Welcome Guest ( Log In | Register )

> Releases Upload / Добавление релизов

Добавить релиз тут / Click here to add release
Рекомендованные обменники / Recommended file shares

> Marbas Valfoerd - Primus Omen Op​.​1 (Remastered) (2022), Symphonic Black Metal
post Jun 22 2022, 13:01:51
Post #1

Правь статус, 616
**************
Group: Металариец
Posts: 7,503
Releases: 5892
From: 55°35’N 38°08’E
On Forums: 13 years 11 months
Thanks: 109066 time(s)
Russian Federation


(IMG:https://metalarea.org/images/audiocovers/2022_Jun/acov_tid366336_thumb.jpg)

*Artist: Marbas Valfoerd
*Album: Primus Omen Op​.​1 (Remastered)
*Year: 2022
*Genre: Symphonic Black Metal
*Country: Argentina (IMG:https://metalarea.org/forum/style_images/flags/Argentina.png)
*Format: mp3@CBR320kbps
*Size: 100MB

Tracklist:
1.Nocturna Tempestate 02:24
2.Voces Per Noctem 04:54
3.Marbas Accipere Sanguinem Meum 05:07
4.Exspecto 05:12
5.In Hominum Cordibus Vestri 04:37
6.Tempestas 04:43
7.Odio Vitae 04:53
8.Ducat Nos 04:08
9.Pater Mihi 03:12
10.Nocturna Tempestate Acapella 02:08
******************************
Total playing time: 41:18



(IMG:https://metalarea.org/images/youtube.png)
(IMG:https://metalarea.org/images/youtube.png)

Extended info
Remastered


Technical info
(IMG:https://metalarea.org/images/spectrogram/2022_Jun/fa4f70230756b6bb3fd732a359ae1ea7.png)
Input File: 02 Voces Per Noctem.mp3
Channels : 2
Sample Rate : 44100
Precision : 16-bit
Duration : 00:04:55.07 = 13012675 samples = 22130.4 CDDA sectors
File Size : 11.9M
Bit Rate : 323k
Sample Encoding: MPEG audio (layer I, II or III)
Comments :
Title=Voces Per Noctem
Artist=Marbas Valfoerd
Album=Primus Omen Op.1 Remastered
Tracknumber=2
Year=2022
Genre=Black Metal



Register


Go to the top of the page
  Insert nick Quick quote
+Quote Post
 
Start new topic
Replies (1 - 2)
post Jun 22 2022, 23:37:25
Post #2
BAN
RO till
Jul 8 2022, 17:25:26



Опа, а ДР тут в районе десяточки! Всем блэкарям, кто любит качественный звук, а не подвальное жужжалити, качать смело.
По мне так много медленных моментов и тремоло какие-то простецкие даже по меркам олдскулла. Но блэкарям наверное зайдет.
Go to the top of the page
  Insert nick Quick quote
+Quote Post
post Jun 23 2022, 15:56:59
Post #3

Common dweller of hell
**************
Group: Металариец
Posts: 4,297
Releases: 12
From: Dnipro
On Forums: 13 years 11 months
Thanks: 1697 time(s)
Ukraine


ЦИТАТА(Anarhist815 @ Jun 23 2022, 01:37:25) *
Всем блэкарям, кто любит качественный звук, а не подвальное жужжалити, качать смело.

Не дури, тут нет качественного звука и в помине (IMG:style_emoticons/default/1488.gif)
Go to the top of the page
  Insert nick Quick quote
+Quote Post

Reply to this topicStart new topic
1 User(s) are reading this topic (1 Guests and 0 Anonymous Users)
0 Members:

 



- Lo-Fi Version Support form
Copyrights and abuse reports form
Time is now: 6th July 2022 - 16:59:19