Welcome Guest ( Log In | Register )

> Releases Upload / Добавление релизов

Добавить релиз тут / Click here to add release
Рекомендованные обменники / Recommended file shares

 
Reply to this topicStart new topic
> SMRT - Sado Masochistic Ritual Temple (2020), Blackened Death Metal
post Jun 22 2022, 13:48:58
Post #1

Правь статус, ####!111
**************
Group: Металариец
Posts: 2,980
Releases: 1518
On Forums: 11 years 7 months
Thanks: 29826 time(s)
Russian Federation


(IMG:https://metalarea.org/images/audiocovers/2022_Jun/acov_tid366337_thumb.jpg)

*Artist: SMRT
*Album: Sado Masochistic Ritual Temple
*Year: 2020
*Genre: Blackened Death Metal
*Country: Spain (IMG:https://metalarea.org/forum/style_images/flags/Spain.png)
*Format: mp3@CBR320kbps
*Size: 88MB

Tracklist:
1.It is done 11th at eleven 02:06
2.Spiritual contamination 02:49
3.Curse 03:50
4.Organization 04:02
5.Glorification of truth 04:55
6.Strange 05:11
7.Consummation of secret urine 03:56
8.Sex priest 03:28
9.No longer 03:31
10.Identity theft 05:55
******************************
Total playing time: 39:43



Technical info
(IMG:https://metalarea.org/images/spectrogram/2022_Jun/0bded06886d764a02604efc7443546b6.png)
Input File: 02 - Spiritual Contamination.mp3
Channels : 2
Sample Rate : 44100
Precision : 16-bit
Duration : 00:02:49.65 = 7481609 samples = 12723.8 CDDA sectors
File Size : 7.19M
Bit Rate : 339k
Sample Encoding: MPEG audio (layer I, II or III)
Comments :
Title=Spiritual Contamination
Artist=SMRT
Album=Sado Masochistic Ritual Temple
Tracknumber=02
Year=2020
Genre=Blackened Death Metal



Register


Go to the top of the page
  Insert nick Quick quote
+Quote Post

Reply to this topicStart new topic
1 User(s) are reading this topic (1 Guests and 0 Anonymous Users)
0 Members:

 



- Lo-Fi Version Support form
Copyrights and abuse reports form
Time is now: 6th July 2022 - 17:12:55