Welcome Guest ( Log In | Register )

> Releases Upload / Добавление релизов

Добавить релиз тут / Click here to add release
Рекомендованные обменники / Recommended file shares

 
Reply to this topicStart new topic
> Haktkuligida - Demo (2018​-​2021) [demo] (2021), Raw Black Metal
post Jun 22 2022, 13:59:24
Post #1

Правь статус, 616
**************
Group: Металариец
Posts: 7,503
Releases: 5892
From: 55°35’N 38°08’E
On Forums: 13 years 11 months
Thanks: 109069 time(s)
Russian Federation


(IMG:https://metalarea.org/images/audiocovers/2022_Jun/acov_tid366338_thumb.jpeg)

*Artist: Haktkuligida
*Album: Demo (2018​-​2021) [demo]
*Year: 2021
*Genre: Raw Black Metal
*Country: China (IMG:https://metalarea.org/forum/style_images/flags/China.png)
*Format: mp3@CBR320kbps
*Size: 45MB

Tracklist:
1. 骸骨锤 03:00
2. 瘋癥 06:03
3. 辟邪神 03:48
4. 山陰比拉 (2018 version) 04:08
5. Outro 02:37
******************************
Total playing time: 19:36




Technical info
(IMG:https://metalarea.org/images/spectrogram/2022_Jun/a6c6b8b573208d4994a750f545b2f065.png)
Input File: 01 Kiamse Xalake - 骸骨锤.mp3
Channels : 2
Sample Rate : 44100
Precision : 16-bit
Duration : 00:03:00.21 = 7947041 samples = 13515.4 CDDA sectors
File Size : 7.28M
Bit Rate : 323k
Sample Encoding: MPEG audio (layer I, II or III)
Comments :
Title=Kiamse Xalake / 骸骨锤
Artist=Haktkuligida
Album=Demo (2018-2021)
Tracknumber=1
Year=2021
Genre=Black Metal



Register


Go to the top of the page
  Insert nick Quick quote
+Quote Post

Reply to this topicStart new topic
1 User(s) are reading this topic (1 Guests and 0 Anonymous Users)
0 Members:

 



- Lo-Fi Version Support form
Copyrights and abuse reports form
Time is now: 6th July 2022 - 17:27:25