Welcome Guest ( Log In | Register )

 
Reply to this topicStart new topic
> Halifax Gibbot - Misguided Time [demo] (1996), Death/Thrash Metal
post Jun 22 2022, 14:34:07
Post #1

Подвал
**************
Group: Металариец
Posts: 17,405
Releases: 9960
From: Far East (Khabarovsk)
On Forums: 13 years 5 months
Thanks: 115465 time(s)
Russian Federation


(IMG:http://metalarea.org/images/audiocovers/2022_Jun/acov_tid366339_thumb.JPG)

*Artist: Halifax Gibbot
*Album: Misguided Time [demo]
*Year: 1996
*Genre: Death/Thrash Metal
*Country: United States (IMG:http://metalarea.org/forum/style_images/flags/United%20States.png)
*Format: mp3@CBR192kbps
*Size: 44MB

Tracklist:
1. The Operation 03:52
2. Misguided Time 03:55
3. Chronic Bodies 05:06
4. Awaken My Rebirth 03:55
5. The Unseen Identity 04:02
6. Day Of The Dead 03:37
7. Blood Stressed 03:29
8. Dormant Life 04:10
******************************
Total playing time: 32:06

Extended info
Band from Dixon, Illinois.
Mixed & engineered at Solid Sound Studio, Hoffman Estates, IL.
Dedicated to Mrs. Malkowski, Greg Balluf and Bob Fortin. R.I.P.


Technical info
(IMG:http://metalarea.org/images/spectrogram/2022_Jun/f0ef5ef0dc1821c48aebc853ef372b48.png)
Input File: 01-The Operation.mp3
Channels : 2
Sample Rate : 44100
Precision : 16-bit
Duration : 00:03:52.50 = 10253338 samples = 17437.6 CDDA sectors
File Size : 5.58M
Bit Rate : 192k
Sample Encoding: MPEG audio (layer I, II or III)
Comments :
Title=The Operation
Artist=Halifax Gibbot (US, IL)
Album=Misguided Time (Demo)
Tracknumber=01
Year=1996
Genre=Death Metal



Register


Go to the top of the page
  Insert nick Quick quote
+Quote Post

Reply to this topicStart new topic
1 User(s) are reading this topic (1 Guests and 0 Anonymous Users)
0 Members:

 



- Lo-Fi Version Support form
Copyrights and abuse reports form
Time is now: 6th July 2022 - 17:38:02